<?xml version="1.0" standalone="no"?>
<!DOCTYPE svg PUBLIC "-//W3C//DTD SVG 1.1//EN" "http://www.w3.org/Graphics/SVG/1.1/DTD/svg11.dtd" >
<svg xmlns="http://www.w3.org/2000/svg">
<metadata>Generated by IcoMoon</metadata>
<defs>
<font id="Pe-icon-social" horiz-adv-x="1024">
<font-face units-per-em="1024" ascent="960" descent="-64" />
<missing-glyph horiz-adv-x="1024" />
<glyph unicode="&#x20;" d="" horiz-adv-x="512" />
<glyph unicode="&#xe600;" d="M339.2 454.4c8 19.2 16 35.2 28.8 49.6 27.2 32 62.4 49.6 105.6 52.8 59.2 4.8 107.2-17.6 150.4-56 17.6-16 33.6-33.6 48-52.8 3.2-3.2 4.8-4.8 8 0 19.2 24 40 46.4 64 65.6 27.2 22.4 59.2 38.4 94.4 41.6 88 9.6 161.6-38.4 180.8-129.6 8-38.4 4.8-76.8-8-113.6-24-68.8-81.6-107.2-153.6-107.2-44.8 0-81.6 17.6-116.8 43.2-22.4 17.6-41.6 36.8-60.8 59.2-3.2 3.2-4.8 4.8-8 0-19.2-19.2-36.8-40-57.6-57.6-27.2-22.4-56-38.4-91.2-43.2-62.4-8-115.2 8-156.8 56-9.6 11.2-16 24-22.4 36.8 0 1.6-3.2 4.8-3.2 4.8-8-17.6-17.6-33.6-32-48-33.6-35.2-73.6-54.4-123.2-56-35.2-1.6-68.8 3.2-100.8 17.6-52.8 25.6-83.2 67.2-86.4 126.4 0 4.8 1.6 6.4 4.8 6.4h86.4c4.8 0 4.8-1.6 6.4-4.8 4.8-32 22.4-56 56-64 46.4-11.2 88 14.4 100.8 62.4 8 32 4.8 62.4-16 89.6-14.4 17.6-33.6 25.6-56 27.2-32 1.6-59.2-8-78.4-35.2-1.6-3.2-3.2-3.2-6.4-3.2-25.6 0-51.2 0-78.4 0-1.6 4.8-3.2 6.4-1.6 9.6 12.8 75.2 27.2 148.8 40 224 1.6 9.6 3.2 20.8 4.8 30.4 0 3.2 1.6 4.8 4.8 4.8 86.4 0 171.2 0 257.6 0 4.8 0 4.8-1.6 4.8-4.8v-68.8c0-4.8-1.6-6.4-6.4-6.4-60.8 0-123.2 0-184 0-4.8 0-8 0-8-6.4-4.8-32-11.2-65.6-17.6-97.6 0-1.6-1.6-3.2 0-4.8s3.2 1.6 3.2 1.6c28.8 27.2 62.4 35.2 100.8 33.6 36.8-1.6 67.2-16 92.8-41.6 11.2-11.2 19.2-24 25.6-36.8 3.2-1.6 4.8-3.2 4.8-4.8zM934.4 384c0 3.2 0 8-1.6 12.8-4.8 43.2-41.6 72-84.8 65.6-22.4-3.2-41.6-14.4-59.2-27.2-19.2-16-36.8-35.2-52.8-52.8-1.6-1.6-1.6-3.2 0-4.8 11.2-12.8 24-27.2 38.4-38.4 24-19.2 48-33.6 78.4-35.2 35.2-3.2 62.4 12.8 75.2 44.8 4.8 9.6 6.4 20.8 6.4 35.2zM417.6 379.2c0-1.6 0-6.4 0-9.6 3.2-33.6 25.6-59.2 57.6-65.6 17.6-3.2 35.2-1.6 52.8 6.4 36.8 14.4 64 40 88 67.2 1.6 1.6 1.6 3.2 0 4.8-17.6 19.2-36.8 36.8-57.6 52.8-14.4 11.2-30.4 20.8-48 24-27.2 6.4-51.2 3.2-72-19.2-12.8-16-20.8-36.8-20.8-60.8z" />
<glyph unicode="&#xe601;" d="M600 659.2c83.2 0 150.4 67.2 150.4 150.4s-67.2 150.4-150.4 150.4c-83.2 0-150.4-67.2-150.4-150.4s67.2-150.4 150.4-150.4zM552 425.6c240-14.4 344 27.2 344 27.2l-22.4 142.4c0 0-280-92.8-408 67.2-6.4 1.6-16-6.4-16-6.4-132.8-115.2-67.2-433.6-449.6-452.8 4.8-67.2 19.2-168 19.2-168s300.8 33.6 424 200c156.8-136 248-299.2 248-299.2l139.2 73.6c0 0-84.8 238.4-278.4 416z" horiz-adv-x="896" />
<glyph unicode="&#xe602;" d="M571.2 660.8c-110.4-3.2-387.2-35.2-387.2-268.8 0-249.6 315.2-260.8 419.2-99.2 3.2-6.4 8-12.8 14.4-19.2 38.4-40 89.6-88 89.6-88l129.6 128c0 0-73.6 57.6-73.6 120s0 278.4 0 336c0 57.6-56 188.8-256 188.8-201.6 1.6-308.8-123.2-308.8-236.8l168-14.4c0 0 36.8 113.6 124.8 113.6s81.6-70.4 81.6-84.8c-1.6-6.4-1.6-35.2-1.6-75.2zM571.2 462.4c0-184-192-155.2-192-40 0 107.2 115.2 129.6 192 131.2 0-30.4 0-62.4 0-91.2zM870.4 116.8c-422.4-200-683.2-32-851.2 68.8-9.6 6.4-28.8-1.6-12.8-19.2 56-67.2 238.4-230.4 476.8-230.4s380.8 131.2 398.4 153.6c19.2 22.4 6.4 35.2-11.2 27.2zM988.8 182.4c-11.2 14.4-68.8 17.6-105.6 12.8s-91.2-27.2-86.4-40c1.6-4.8 8-3.2 32 0 25.6 3.2 94.4 11.2 110.4-8 14.4-19.2-22.4-110.4-28.8-124.8s3.2-19.2 14.4-8c12.8 9.6 33.6 35.2 48 72 16 33.6 24 84.8 16 96z" horiz-adv-x="992" />
<glyph unicode="&#xe603;" d="M569.6 865.6l44.8 80c3.2 4.8 1.6 9.6-3.2 12.8-3.2 3.2-9.6 1.6-11.2-3.2l-46.4-81.6c-36.8 16-78.4 24-121.6 24s-84.8-8-121.6-24l-46.4 81.6c-1.6 4.8-8 6.4-12.8 3.2s-6.4-8-3.2-12.8l44.8-80c-88-43.2-147.2-128-147.2-224v-4.8h569.6v4.8c1.6 97.6-57.6 180.8-145.6 224zM300.8 739.2c-14.4 0-25.6 11.2-25.6 25.6s11.2 25.6 25.6 25.6c14.4 0 25.6-11.2 25.6-25.6 1.6-14.4-11.2-25.6-25.6-25.6zM563.2 739.2c-14.4 0-25.6 11.2-25.6 25.6s11.2 25.6 25.6 25.6c14.4 0 25.6-11.2 25.6-25.6s-11.2-25.6-25.6-25.6zM147.2 360v-156.8c0-36.8 28.8-65.6 65.6-65.6h49.6v-137.6c0-35.2 28.8-62.4 62.4-62.4s62.4 28.8 62.4 62.4v137.6h88v-137.6c0-35.2 28.8-62.4 62.4-62.4 35.2 0 62.4 28.8 62.4 62.4v137.6h49.6c36.8 0 65.6 28.8 65.6 65.6v412.8h-568v-256zM803.2 628.8c-35.2 0-62.4-28.8-62.4-62.4v-265.6c0-35.2 28.8-62.4 62.4-62.4 35.2 0 62.4 28.8 62.4 62.4v264c0 35.2-28.8 64-62.4 64zM60.8 628.8c-35.2 0-62.4-28.8-62.4-62.4v-265.6c0-35.2 28.8-62.4 62.4-62.4 35.2 0 62.4 28.8 62.4 62.4v264c0 35.2-27.2 64-62.4 64z" horiz-adv-x="864" />
<glyph unicode="&#xe604;" d="M420.8 465.6l86.4 150.4c6.4 11.2 3.2 25.6-8 32l-62.4 35.2c-11.2 6.4-25.6 3.2-32-8l-94.4-164.8-104-180.8-86.4-152c-6.4-11.2-3.2-25.6 8-32l62.4-35.2c11.2-6.4 25.6-3.2 32 8l121.6 211.2 76.8 136zM1003.2 510.4h-208c24-46.4 48-89.6 64-120 11.2-20.8 19.2-38.4 22.4-43.2 3.2-6.4 4.8-12.8 6.4-17.6h115.2c11.2 0 20.8 9.6 20.8 20.8v139.2c0 11.2-9.6 20.8-20.8 20.8zM496 510.4l-104-180.8h283.2c-20.8 40-48 99.2-84.8 180.8h-94.4zM260.8 510.4h-240c-11.2 0-20.8-9.6-20.8-20.8v-139.2c0-11.2 9.6-20.8 20.8-20.8h136l104 180.8zM169.6 83.2l-62.4 35.2c-11.2 6.4-22.4 1.6-24-11.2l-11.2-92.8c-1.6-12.8 6.4-17.6 17.6-9.6l80 54.4c11.2 6.4 11.2 17.6 0 24zM843.2 328c0 0-1.6 1.6-1.6 1.6v0c-6.4 11.2-20.8 38.4-38.4 73.6 0 0 0 1.6 0 1.6-1.6 3.2-3.2 4.8-4.8 8-1.6 1.6-1.6 4.8-3.2 6.4s-1.6 3.2-3.2 4.8-3.2 6.4-4.8 9.6c0 1.6-1.6 1.6-1.6 3.2-1.6 3.2-3.2 8-6.4 11.2 0 1.6-1.6 1.6-1.6 3.2-43.2 81.6-97.6 184-131.2 236.8-59.2 92.8-137.6 248-160 236.8-30.4-16 64-212.8 96-286.4s155.2-358.4 179.2-369.6c24-12.8 33.6-4.8 51.2 1.6 16 6.4 44.8 28.8 30.4 57.6zM913.6 180.8l-28.8 56c-6.4 12.8-22.4 17.6-35.2 11.2l-35.2-17.6c-12.8-6.4-16-20.8-8-33.6l36.8-59.2c8-12.8 24-16 35.2-9.6l25.6 14.4c11.2 9.6 16 25.6 9.6 38.4zM904 99.2c-9.6-6.4-32-28.8-4.8-65.6s86.4-38.4 94.4-64c0 0 17.6 190.4-89.6 129.6z" />
<glyph unicode="&#xe605;" d="M696 416c-1.6 129.6 105.6 192 110.4 195.2-60.8 88-153.6 100.8-187.2 100.8-80 8-155.2-46.4-196.8-46.4-40 0-102.4 46.4-169.6 44.8-86.4-1.6-166.4-51.2-211.2-128-89.6-156.8-22.4-390.4 65.6-516.8 43.2-62.4 94.4-132.8 161.6-129.6 65.6 3.2 89.6 41.6 168 41.6s100.8-41.6 169.6-40c70.4 1.6 113.6 64 156.8 126.4 49.6 72 70.4 142.4 70.4 145.6-1.6 0-136 51.2-137.6 206.4zM566.4 796.8c35.2 43.2 59.2 104 52.8 163.2-51.2-1.6-113.6-33.6-150.4-76.8-33.6-38.4-62.4-99.2-54.4-158.4 57.6-4.8 116.8 28.8 152 72z" horiz-adv-x="832" />
<glyph unicode="&#xe606;" d="M424 470.4c54.4 27.2 78.4 70.4 78.4 132.8 0 118.4-88 163.2-208 163.2h-294.4v-635.2h296c113.6 0 225.6 56 225.6 184 0 73.6-27.2 131.2-97.6 155.2zM147.2 657.6h129.6c49.6 0 97.6-12.8 97.6-73.6 0-49.6-36.8-68.8-84.8-68.8h-142.4v142.4zM288 240h-140.8v169.6h144c59.2 0 97.6-22.4 97.6-88 0-60.8-46.4-81.6-100.8-81.6zM804.8 617.6c-158.4 0-233.6-105.6-233.6-243.2 0-156.8 94.4-241.6 233.6-241.6 104 0 179.2 41.6 214.4 148.8h-123.2c-8-28.8-48-52.8-86.4-52.8-70.4 0-113.6 38.4-116.8 115.2h331.2c8 142.4-57.6 273.6-219.2 273.6zM694.4 422.4c1.6 35.2 22.4 96 102.4 96 60.8 0 91.2-32 104-96h-206.4zM667.2 740.8h257.6v-64h-257.6v64z" />
<glyph unicode="&#xe607;" d="M880 846.4c-6.4 9.6-14.4 17.6-24 24-19.2 16-41.6 25.6-65.6 35.2-49.6 19.2-100.8 32-152 40-62.4 9.6-126.4 14.4-192 14.4-59.2 0-123.2-4.8-185.6-14.4-44.8-6.4-88-16-129.6-30.4-28.8-9.6-56-20.8-80-36.8-11.2-8-22.4-17.6-32-28.8-11.2-14.4-16-30.4-12.8-48 6.4-35.2 11.2-70.4 16-105.6 8-52.8 17.6-104 25.6-156.8 9.6-57.6 20.8-115.2 30.4-172.8 1.6-12.8 8-24 17.6-35.2 6.4-6.4 11.2-12.8 19.2-17.6 24-19.2 51.2-32 78.4-43.2 67.2-27.2 137.6-38.4 209.6-43.2 52.8-3.2 104-1.6 156.8 6.4 44.8 6.4 88 16 129.6 30.4 32 11.2 60.8 25.6 88 44.8 11.2 8 22.4 17.6 30.4 28.8 6.4 8 9.6 16 11.2 25.6 12.8 75.2 25.6 152 38.4 227.2 11.2 70.4 22.4 140.8 33.6 211.2 1.6 16-1.6 30.4-11.2 44.8v0zM448 324.8c-76.8 0-140.8 64-139.2 140.8 0 78.4 64 140.8 140.8 140.8 78.4 0 140.8-64 140.8-142.4-1.6-76.8-65.6-139.2-142.4-139.2v0zM728 817.6c-4.8-4.8-9.6-8-14.4-11.2-14.4-8-30.4-12.8-46.4-17.6-30.4-8-62.4-12.8-94.4-16-41.6-4.8-83.2-6.4-123.2-6.4-48 0-94.4 1.6-139.2 8-35.2 4.8-68.8 9.6-102.4 20.8-9.6 3.2-19.2 8-28.8 12.8-4.8 1.6-9.6 6.4-12.8 9.6-6.4 6.4-6.4 14.4 0 20.8 3.2 3.2 8 8 12.8 9.6 14.4 8 28.8 12.8 43.2 16 32 8 64 12.8 97.6 16 52.8 4.8 107.2 6.4 160 4.8 49.6-1.6 97.6-4.8 147.2-14.4 22.4-4.8 44.8-9.6 67.2-17.6 8-3.2 14.4-6.4 22.4-11.2 3.2-1.6 6.4-4.8 9.6-8 6.4-3.2 8-9.6 1.6-16v0zM782.4 224c0-3.2 0-6.4 0-9.6-9.6-51.2-19.2-104-28.8-155.2-3.2-17.6-11.2-32-24-44.8-12.8-14.4-30.4-24-46.4-33.6-32-16-65.6-25.6-99.2-33.6-44.8-9.6-89.6-12.8-115.2-12.8-78.4 0-136 6.4-190.4 22.4-25.6 8-51.2 17.6-73.6 30.4-12.8 6.4-24 16-33.6 25.6-12.8 12.8-20.8 27.2-24 44.8-9.6 51.2-19.2 104-28.8 155.2 0 3.2 0 4.8 0 8 0 12.8 11.2 19.2 24 12.8 1.6 0 1.6-1.6 3.2-1.6 38.4-27.2 80-46.4 124.8-59.2 40-12.8 83.2-20.8 124.8-24 49.6-4.8 97.6-3.2 147.2 3.2 64 9.6 126.4 27.2 184 59.2 11.2 6.4 22.4 14.4 33.6 20.8 1.6 1.6 3.2 3.2 4.8 3.2 6.4 6.4 16 1.6 17.6-11.2v0zM518.4 465.6c0-38.4-32-70.4-70.4-70.4s-70.4 32-70.4 70.4c0 38.4 32 70.4 70.4 70.4 40 0 70.4-30.4 70.4-70.4v0z" horiz-adv-x="896" />
<glyph unicode="&#xe608;" d="M958.4 576h-57.6c-35.2 0-65.6 30.4-68.8 64v0c0 182.4-147.2 320-331.2 320h-168c-184 0-332.8-147.2-332.8-331.2v-363.2c0-182.4 148.8-329.6 332.8-329.6h358.4c184 0 332.8 147.2 332.8 331.2v233.6c0 36.8-28.8 75.2-65.6 75.2zM320 704h192c35.2 0 64-28.8 64-64s-28.8-64-64-64h-192c-35.2 0-64 28.8-64 64s28.8 64 64 64zM704 192h-384c-35.2 0-64 28.8-64 64s28.8 64 64 64h384c35.2 0 64-28.8 64-64s-28.8-64-64-64z" />
<glyph unicode="&#xe609;" d="M515.2 403.2h-104v-163.2h104c86.4 0 91.2 60.8 91.2 83.2 1.6 19.2-6.4 80-91.2 80zM886.4 960h-748.8c-76.8 0-137.6-60.8-137.6-137.6v-748.8c0-76.8 60.8-137.6 137.6-137.6h748.8c75.2 0 137.6 60.8 137.6 137.6v748.8c0 76.8-60.8 137.6-137.6 137.6zM553.6 128h-307.2v640h299.2c169.6 0 206.4-120 206.4-168 0-96-54.4-120-81.6-131.2 41.6-11.2 108.8-46.4 108.8-169.6-1.6-33.6-6.4-171.2-225.6-171.2zM577.6 584c0 19.2-12.8 62.4-73.6 62.4h-92.8v-128h91.2c67.2 0 75.2 43.2 75.2 65.6z" />
<glyph unicode="&#xe60a;" d="M512 185.6c-51.2 0-99.2 14.4-142.4 41.6-43.2 28.8-75.2 64-96 108.8l-209.6 368c-44.8-78.4-64-166.4-64-256 0-128 41.6-240 124.8-334.4 83.2-96 187.2-152 310.4-171.2l148.8 257.6c-14.4-4.8-40-14.4-72-14.4zM350.4 654.4c48 36.8 100.8 49.6 161.6 49.6 8 0 440 0 440 0-44.8 76.8-107.2 142.4-185.6 188.8-76.8 44.8-161.6 67.2-254.4 67.2-80 0-155.2-17.6-224-51.2s-132.8-83.2-180.8-147.2l148.8-249.6c14.4 57.6 48 105.6 94.4 142.4zM985.6 640h-297.6c51.2-51.2 86.4-118.4 86.4-192 0-54.4-16-104-46.4-150.4l-209.6-361.6c140.8 1.6 259.2 51.2 358.4 152 97.6 100.8 147.2 219.2 147.2 360 0 65.6-11.2 134.4-38.4 192zM704 448c0-106.039-85.961-192-192-192s-192 85.961-192 192c0 106.039 85.961 192 192 192s192-85.961 192-192z" />
<glyph unicode="&#xe60b;" d="M529.6 947.2c-27.2 17.6-64 17.6-91.2-1.6l-406.4-283.2c-22.4-14.4-35.2-40-35.2-65.6v-305.6c0-27.2 14.4-52.8 36.8-67.2l414.4-275.2c27.2-17.6 62.4-17.6 89.6 0l422.4 278.4c22.4 14.4 36.8 40 36.8 67.2v300.8c0 27.2-14.4 52.8-36.8 67.2l-430.4 284.8zM844.8 616l-155.2-104-147.2 105.6v209.6l302.4-211.2zM436.8 825.6v-204.8l-150.4-104-148.8 100.8 299.2 208zM96 516.8l96-65.6-96-67.2v132.8zM438.4 80l-300.8 201.6 150.4 105.6 150.4-100.8v-206.4zM380.8 452.8l97.6 68.8 113.6-75.2-100.8-67.2-110.4 73.6zM545.6 80v206.4l144 96 155.2-102.4-299.2-200zM888 380.8l-102.4 67.2 102.4 68.8v-136z" horiz-adv-x="992" />
<glyph unicode="&#xe60c;" d="M152 896l-33.6-172.8h699.2l-22.4-110.4h-699.2l-33.6-172.8h699.2l-38.4-196.8-281.6-92.8-244.8 92.8 16 84.8h-171.2l-41.6-204.8 404.8-155.2 465.6 155.2 153.6 772.8h-872z" />
<glyph unicode="&#xe60d;" d="M852.8 960h-681.6c-94.4 0-171.2-76.8-171.2-171.2v-683.2c0-92.8 76.8-169.6 171.2-169.6h683.2c92.8 0 169.6 76.8 169.6 171.2v681.6c0 94.4-76.8 171.2-171.2 171.2zM960 107.2c0-28.8-11.2-54.4-32-75.2s-46.4-32-75.2-32h-340.8v448h-448v340.8c0 28.8 11.2 56 32 75.2 20.8 20.8 46.4 32 75.2 32h340.8v-448h448v-340.8z" />
<glyph unicode="&#xe60e;" d="M561.6 507.2h-132.8l121.6-212.8c209.6 57.6 416 115.2 473.6 131.2-115.2 155.2-377.6 214.4-675.2 161.6l-46.4 89.6-115.2-25.6 46.4-92.8c-214.4-75.2-283.2-243.2-198.4-404.8 0 0 233.6 64 475.2 131.2l-132.8 254.4c131.2 20.8 326.4 16 424-89.6-28.8-8-92.8-24-171.2-43.2l-68.8 100.8zM166.4 291.2c-11.2 94.4 27.2 166.4 96 208l80-164.8c-99.2-24-176-43.2-176-43.2z" />
<glyph unicode="&#xe60f;" d="M636.8 774.4v185.6h-185.6l-19.2-19.2-88-166.4-27.2-19.2h-313.6v-256h172.8l14.4-17.6-187.2-360v-185.6h185.6l19.2 19.2 88 166.4 27.2 19.2h313.6v256h-172.8l-14.4 17.6z" horiz-adv-x="640" />
<glyph unicode="&#xe610;" d="M156.8 606.4h-156.8v-313.6h260.8v449.6h-104v-136zM153.6 388.8h-52.8v129.6h52.8v-129.6zM460.8 288h152v-40h-152v-94.4h256v451.2h-256v-316.8zM558.4 505.6h51.2v-129.6h-51.2v129.6zM768 604.8v-316.8h152v-40h-152v-94.4h256v451.2h-256zM916.8 376h-51.2v129.6h51.2v-129.6zM307.2 740.8h104v-88h-104v88zM307.2 604.8h104v-315.2h-104v315.2z" />
<glyph unicode="&#xe611;" d="M512 960c-283.2 0-512-228.8-512-512s228.8-512 512-512 512 228.8 512 512-228.8 512-512 512zM848 712c54.4-70.4 88-156.8 91.2-252.8-115.2 20.8-214.4 20.8-299.2 8-11.2 25.6-22.4 49.6-33.6 72 91.2 38.4 174.4 92.8 241.6 172.8zM512 875.2c105.6 0 203.2-38.4 276.8-102.4-60.8-73.6-136-123.2-222.4-158.4-54.4 102.4-110.4 187.2-155.2 249.6 32 8 65.6 11.2 100.8 11.2zM328 833.6c43.2-57.6 100.8-142.4 158.4-244.8-120-33.6-254.4-41.6-390.4-41.6 30.4 126.4 116.8 232 232 286.4zM84.8 448c0 4.8 0 9.6 0 14.4 0 0 1.6 0 1.6 0 152 0 304 9.6 440 49.6 9.6-20.8 20.8-41.6 30.4-64-179.2-52.8-289.6-169.6-366.4-281.6-65.6 75.2-105.6 174.4-105.6 281.6zM512 20.8c-97.6 0-187.2 33.6-259.2 88 72 108.8 172.8 216 336 260.8 38.4-97.6 68.8-204.8 86.4-316.8-51.2-20.8-105.6-32-163.2-32zM753.6 96c-17.6 102.4-46.4 200-80 291.2 75.2 9.6 161.6 8 260.8-11.2-20.8-116.8-88-216-180.8-280z" />
<glyph unicode="&#xe612;" d="M713.6 153.6l-201.6 152-198.4-152-115.2 67.2v-73.6l313.6-206.4 313.6 204.8v73.6zM1024 731.2l-302.4 192-209.6-172.8 313.6-182.4zM0 400l310.4-182.4 201.6 153.6-297.6 190.4zM310.4 923.2l-310.4-201.6 214.4-160 297.6 188.8zM512 371.2l204.8-153.6 307.2 182.4-198.4 168z" />
<glyph unicode="&#xe613;" d="M672 769.6c-52.8 32-102.4 44.8-152 78.4-30.4 20.8-73.6 70.4-108.8 112-6.4-68.8-27.2-96-51.2-115.2-51.2-40-81.6-51.2-126.4-75.2-36.8-19.2-235.2-137.6-235.2-392s214.4-441.6 452.8-441.6c238.4 0 444.8 172.8 444.8 433.6 1.6 262.4-192 380.8-224 400zM675.2 35.2c-4.8-4.8-51.2-36.8-104-41.6s-126.4-8-169.6 32c-6.4 6.4-4.8 16 0 20.8s9.6 6.4 14.4 6.4c6.4 0 4.8 0 8-1.6 19.2-16 49.6-28.8 112-28.8 64 0 107.2 17.6 128 32 9.6 6.4 12.8 1.6 14.4-3.2 1.6-3.2 4.8-9.6-3.2-16zM504 118.4c11.2 9.6 28.8 25.6 46.4 32s25.6 6.4 41.6 6.4c16 0 32-1.6 44.8-9.6 11.2-8 19.2-25.6 22.4-35.2 4.8-9.6 0-16-8-19.2-6.4-3.2-8-1.6-14.4 11.2s-12.8 25.6-48 25.6c-35.2 0-44.8-11.2-62.4-25.6s-22.4-19.2-28.8-11.2c-6.4 8-4.8 16 6.4 25.6zM860.8 307.2c0-30.4-9.6-86.4-33.6-120-24-35.2-38.4-48-65.6-44.8-35.2 3.2-107.2 113.6-152 115.2-57.6 1.6-182.4-120-280-120-59.2 0-76.8 9.6-97.6 22.4-30.4 20.8-44.8 52.8-43.2 96 1.6 76.8 73.6 148.8 164.8 150.4 115.2 1.6 196.8-113.6 254.4-113.6 49.6 1.6 144 97.6 190.4 97.6 49.6-1.6 62.4-52.8 62.4-83.2z" horiz-adv-x="896" />
<glyph unicode="&#xe614;" d="M969.6 537.6l-86.4-174.4-88 174.4h-60.8l16-28.8c-20.8 30.4-60.8 38.4-97.6 38.4-108.8 0-115.2-59.2-115.2-68.8h54.4c0 0 3.2 35.2 57.6 35.2 35.2 0 64-16 64-48v-11.2h-64c-70.4 0-113.6-17.6-124.8-51.2 1.6 8 1.6 16 1.6 24 0 67.2-44.8 120-121.6 120-72 0-92.8-38.4-92.8-38.4v128h-52.8v-195.2c0 43.2-28.8 105.6-124.8 105.6-72 0-132.8-30.4-132.8-123.2 0-73.6 40-120 134.4-120 110.4 0 116.8 72 116.8 72h-52.8c0 0-11.2-38.4-67.2-38.4-44.8 0-78.4 30.4-78.4 73.6h204.8v-59.2c0-16-1.6-38.4-1.6-38.4h51.2c0 0 1.6 16 1.6 32 0 0 25.6-40 94.4-40 59.2 0 102.4 33.6 116.8 83.2 0-3.2 0-4.8 0-8 0-49.6 41.6-75.2 96-75.2 75.2 0 100.8 41.6 100.8 41.6 0-16 1.6-33.6 1.6-33.6h48c0 0-1.6 20.8-1.6 33.6v112c0 14.4-3.2 27.2-6.4 38.4l97.6-182.4-46.4-86.4h57.6l155.2 308.8h-54.4zM54.4 446.4c0 41.6 38.4 65.6 76.8 65.6 43.2 0 72-27.2 72-65.6h-148.8zM390.4 339.2c-52.8 0-80 41.6-80 86.4 0 41.6 25.6 86.4 80 86.4 49.6 0 80-36.8 80-84.8 0-52.8-36.8-88-80-88zM710.4 406.4c0-19.2-12.8-67.2-83.2-67.2-38.4 0-56 19.2-56 41.6 0 40 56 41.6 137.6 41.6v-16z" />
<glyph unicode="&#xe615;" d="M305.6 484.8c0 8 0 14.4 0 20.8 0 113.6 0 228.8 0 342.4 0 25.6 0 25.6 27.2 25.6 102.4 0 203.2-1.6 304 0 41.6 0 68.8-17.6 86.4-52.8 8-16 14.4-32 19.2-48 8-28.8 14.4-57.6 24-86.4 1.6-6.4 8-14.4 14.4-16 16-1.6 30.4 0 48 0 8 97.6 12.8 193.6 19.2 289.6-284.8-24-566.4-12.8-849.6-8 0-17.6-1.6-35.2 0-51.2 1.6-4.8 9.6-11.2 14.4-12.8 20.8-4.8 43.2-8 64-12.8 51.2-9.6 64-25.6 65.6-76.8 1.6-91.2 3.2-182.4 3.2-275.2 0-147.2-1.6-294.4-3.2-441.6 0-8-1.6-16-3.2-24-1.6-17.6-12.8-28.8-27.2-35.2-9.6-4.8-20.8-8-32-9.6-27.2-6.4-52.8-11.2-78.4-16 0-22.4 0-41.6 0-60.8 11.2 0 20.8 0 30.4 0 70.4 1.6 140.8 6.4 212.8 6.4 196.8-1.6 395.2-4.8 592-6.4 25.6 0 25.6 0 27.2 24 8 67.2 16 136 24 203.2 3.2 25.6 6.4 49.6 9.6 76.8-11.2 0-20.8-1.6-28.8 0-19.2 3.2-28.8-4.8-36.8-24-16-40-33.6-80-52.8-120-24-48-60.8-80-116.8-81.6-91.2-3.2-182.4-4.8-275.2-1.6-59.2 1.6-81.6 30.4-81.6 89.6 0 96 0 190.4 0 286.4 0 8 0 14.4 1.6 22.4 3.2 1.6 4.8 1.6 6.4 1.6 64-1.6 128-1.6 192-3.2 33.6-1.6 60.8-14.4 70.4-51.2 4.8-16 8-32 11.2-48 11.2-43.2 11.2-43.2 56-43.2 16 0 19.2 6.4 19.2 19.2 0 107.2 1.6 214.4 3.2 321.6 0 9.6 0 17.6 0 27.2-17.6 0-32-1.6-46.4 0-11.2 1.6-16-4.8-19.2-14.4-6.4-27.2-12.8-54.4-19.2-81.6-9.6-36.8-22.4-48-60.8-49.6-27.2-1.6-54.4-4.8-83.2-4.8-43.2 0-86.4 0-131.2 0z" horiz-adv-x="896" />
<glyph unicode="&#xe616;" d="M89.6 761.6c0 0 0 0 0 0h96c4.8 0 9.6 4.8 9.6 9.6 0 0-1.6 81.6-1.6 105.6v0c0 19.2 3.2 35.2 11.2 49.6l3.2 6.4c0 0 0 0-1.6 0l-185.6-185.6c0 0 0 0 0-1.6 3.2 1.6 9.6 4.8 9.6 4.8 16 8 35.2 11.2 59.2 11.2zM836.8 782.4c-8 41.6-32 60.8-54.4 68.8-24 8-72 17.6-132.8 24-48 6.4-105.6 4.8-140.8 4.8-4.8 28.8-24 54.4-46.4 64-59.2 24-150.4 17.6-174.4 11.2-19.2-4.8-40-16-51.2-32-8-11.2-12.8-25.6-12.8-44.8 0-11.2 0-36.8 0-60.8s0-44.8 0-44.8-17.6-38.4-38.4-38.4h-96c-20.8 0-36.8-3.2-48-9.6-8-4.8-16-12.8-22.4-20.8-12.8-17.6-14.4-38.4-14.4-60.8 0 0 0-17.6 4.8-52.8 3.2-27.2 32-212.8 59.2-268.8 11.2-22.4 17.6-30.4 38.4-40 46.4-19.2 152-41.6 201.6-48s80-19.2 99.2 19.2c0 0 3.2 9.6 8 24 16 49.6 17.6 92.8 17.6 123.2 0 3.2 4.8 3.2 4.8 0 0-22.4-4.8-100.8 54.4-121.6 24-8 72-16 121.6-20.8 44.8-4.8 76.8-22.4 76.8-137.6 0-68.8-14.4-78.4-91.2-78.4-62.4 0-84.8-1.6-84.8 48 0 40 40 35.2 68.8 35.2 12.8 0 3.2 9.6 3.2 33.6s16 38.4 1.6 38.4c-100.8 3.2-160 0-160-126.4 0-113.6 43.2-136 187.2-136 112 0 152 3.2 198.4 147.2 9.6 28.8 32 115.2 44.8 259.2 8 94.4-9.6 371.2-22.4 441.6zM641.6 475.2c-14.4 0-27.2 0-40-1.6 3.2 28.8 14.4 62.4 56 60.8 46.4-1.6 52.8-44.8 52.8-73.6-19.2 8-43.2 14.4-68.8 14.4z" horiz-adv-x="864" />
<glyph unicode="&#xe617;" d="M380.8 764.8h131.2v195.2h-155.2c-187.2-8-225.6-113.6-228.8-224v0-97.6h-128v-190.4h128v-512h192v512h158.4l30.4 190.4h-188.8v59.2c0 36.8 25.6 67.2 60.8 67.2z" horiz-adv-x="512" />
<glyph unicode="&#xe618;" d="M883.2 196.8c28.8 52.8 67.2 84.8 88 120 27.2 48 80 185.6 40 296 17.6-68.8 12.8-139.2-44.8-174.4 17.6 48 30.4 156.8 11.2 252.8-12.8 62.4-51.2 118.4-76.8 136 24-17.6 43.2-81.6 41.6-110.4-51.2 84.8-131.2 163.2-252.8 196.8 94.4-62.4 129.6-115.2 152-161.6-25.6 25.6-68.8 52.8-97.6 54.4 43.2-32 116.8-129.6 108.8-275.2-11.2 24-32 60.8-46.4 73.6 16-144 1.6-174.4-8-212.8-1.6 17.6-8 30.4-11.2 38.4 0 0-1.6-44.8-30.4-108.8-22.4-48-44.8-64-54.4-62.4s-3.2 9.6-4.8 19.2c0 0-14.4-8-30.4-22.4-14.4-14.4-27.2-32-33.6-27.2 4.8 4.8 8 11.2 12.8 17.6-4.8-3.2-19.2-14.4-51.2-19.2-12.8-1.6-68.8-11.2-142.4 25.6 11.2 1.6 27.2 4.8 40-1.6-12.8 12.8-41.6 11.2-64 17.6-19.2 6.4-43.2 32-57.6 44.8 57.6-14.4 116.8-3.2 152 20.8s56 41.6 75.2 38.4c19.2-4.8 32 14.4 16 32-14.4 16-49.6 40-97.6 27.2-41.6-9.6-75.2-46.4-139.2-8-54.4 32-54.4 59.2-54.4 75.2 0 11.2 6.4 27.2 20.8 35.2 6.4-3.2 11.2-4.8 11.2-4.8s-3.2 4.8-4.8 8c0 0 1.6 0 1.6 0 6.4-1.6 19.2-6.4 25.6-9.6 9.6-4.8 11.2-9.6 11.2-9.6s1.6 1.6 0 6.4c-1.6 1.6-4.8 8-12.8 12.8 0 0 0 0 0 0 4.8-1.6 9.6-4.8 14.4-8 1.6 8 4.8 16 3.2 30.4-1.6 9.6-1.6 12.8-3.2 16s0 4.8 3.2 1.6c-1.6 1.6-1.6 4.8-3.2 8v0c3.2 12.8 76.8 51.2 81.6 54.4 8 4.8 16 14.4 20.8 24 3.2 6.4 6.4 16 4.8 28.8 0 9.6-6.4 14.4-84.8 14.4-20.8 0-35.2 12.8-44.8 24-1.6 3.2-3.2 4.8-4.8 8s-3.2 6.4-4.8 8c9.6 33.6 28.8 64 57.6 88 1.6 1.6-6.4-1.6-4.8 0s14.4 8 16 9.6c3.2 1.6-12.8 6.4-27.2 3.2s-17.6-4.8-24-8c3.2 3.2 12.8 8 9.6 8-16-3.2-33.6-14.4-49.6-24 0 1.6 0 3.2 0 4.8-8-3.2-25.6-17.6-28.8-27.2 0 1.6 0 3.2 0 6.4-4.8-4.8-9.6-9.6-14.4-16 0 0 0 0 0 0-46.4 11.2-84.8 8-118.4-1.6-8 4.8-20.8 14.4-40 44.8 0-3.2 0-9.6-1.6-6.4-8 12.8-14.4 36.8-14.4 54.4 0 0-12.8-8-20.8-33.6-1.6-4.8-3.2-8-3.2-9.6s0 8 0 8c-1.6-4.8-6.4-9.6-8-16-1.6-3.2-3.2-6.4-3.2-11.2 0 0 0 0 0 0 0 1.6 0 6.4 0 4.8-4.8-9.6-8-20.8-11.2-33.6-4.8-19.2-8-46.4-4.8-81.6 0-3.2 0-4.8 0-8-12.8-17.6-20.8-32-24-38.4-14.4-28.8-30.4-75.2-43.2-145.6 0 0 8 27.2 25.6 56-12.8-38.4-22.4-96-16-185.6 0 3.2 3.2 25.6 9.6 54.4 3.2-59.2 17.6-131.2 62.4-209.6 35.2-59.2 126.4-198.4 356.8-249.6-25.6 8-41.6 22.4-41.6 22.4s86.4-27.2 148.8-25.6c-19.2 3.2-24 12.8-24 12.8s222.4-12.8 300.8 92.8c-27.2-30.4-92.8-40-118.4-40 38.4 35.2 123.2 35.2 216 124.8 51.2 49.6 56 88 60.8 123.2-8-44.8-52.8-73.6-97.6-97.6z" />
<glyph unicode="&#xe619;" d="M368 960c-243.2 0-368-140.8-368-401.6v0-548.8l238.4 238.4v278.4c0 108.8 28.8 177.6 124.8 193.6v0c33.6 6.4 104 4.8 148.8 4.8v0-164.8c0-1.6 0-4.8 0-4.8v0c1.6-6.4 8-11.2 14.4-11.2v0c4.8 0 8 1.6 11.2 6.4v0l414.4 409.6h-584zM785.6 648v-278.4c0-108.8-28.8-177.6-124.8-193.6v0c-33.6-6.4-104-4.8-148.8-4.8v0 166.4c0 1.6 0 4.8 0 4.8v0c-1.6 6.4-8 11.2-14.4 11.2v0c-4.8 0-8-1.6-11.2-6.4v0l-414.4-411.2h584c243.2 0 368 140.8 368 401.6v0 548.8l-238.4-238.4z" />
<glyph unicode="&#xe61a;" d="M225.6 672c-124.8 0-225.6-100.8-225.6-224s100.8-224 225.6-224c124.8 0 225.6 100.8 225.6 224-1.6 123.2-102.4 224-225.6 224zM800 672c-123.2 0-224-100.8-224-224s100.8-224 224-224c123.2 0 224 100.8 224 224s-100.8 224-224 224z" />
<glyph unicode="&#xe61b;" d="M512-64h448l-480 1024-480-1024h449.6v166.4l-107.2 80 19.2 75.2 88-64v188.8h62.4v-96l84.8 54.4 17.6-64-102.4-64v-72l164.8 81.6 14.4-78.4-179.2-88z" horiz-adv-x="960" />
<glyph unicode="&#xe61c;" d="M644.8 960c0 0-470.4 0-545.6 0s-97.6-56-97.6-92.8c0-35.2 0-867.2 0-867.2 0-40 22.4-54.4 33.6-60.8 12.8-4.8 46.4-9.6 65.6 14.4 0 0 257.6 299.2 262.4 304 6.4 6.4 6.4 6.4 12.8 6.4 12.8 0 112 0 166.4 0 70.4 0 81.6 49.6 88 80 6.4 24 75.2 374.4 97.6 486.4 19.2 83.2-3.2 129.6-83.2 129.6zM632 344c6.4 24 75.2 374.4 97.6 486.4zM612.8 812.8l-22.4-120c-3.2-12.8-19.2-27.2-33.6-27.2s-212.8 0-212.8 0c-24 0-41.6-16-41.6-40v-25.6c0-24 17.6-41.6 41.6-41.6 0 0 163.2 0 180.8 0s33.6-19.2 30.4-36.8c-3.2-17.6-20.8-107.2-22.4-116.8s-12.8-27.2-33.6-27.2c-17.6 0-147.2 0-147.2 0-27.2 0-35.2-3.2-52.8-25.6s-179.2-216-179.2-216c-1.6-1.6-3.2-1.6-3.2 0v678.4c0 16 12.8 33.6 33.6 33.6 0 0 420.8 0 438.4 0 12.8-1.6 27.2-16 24-35.2z" horiz-adv-x="736" />
<glyph unicode="&#xe61d;" d="M203.2 712c-51.2 0-94.4-17.6-131.2-51.2-38.4-35.2-57.6-80-57.6-134.4 0-35.2 9.6-68.8 32-100.8 19.2-28.8 38.4-48 64-56v-1.6c-25.6-11.2-36.8-36.8-36.8-78.4 0-32 11.2-56 36.8-72v-1.6c-70.4-22.4-102.4-65.6-102.4-129.6 0-54.4 24-94.4 70.4-120 35.2-20.8 81.6-30.4 139.2-30.4 137.6 0 208 57.6 208 174.4 0 72-52.8 116.8-160 132.8-24 3.2-43.2 12.8-56 27.2-9.6 9.6-14.4 19.2-14.4 28.8 0 27.2 14.4 43.2 44.8 48 44.8 6.4 83.2 27.2 112 64 28.8 35.2 43.2 76.8 43.2 124.8 0 14.4-4.8 30.4-11.2 48 19.2 4.8 33.6 8 43.2 12.8v115.2c-44.8-17.6-86.4-27.2-123.2-27.2-32 17.6-64 27.2-100.8 27.2zM216 152c62.4 0 94.4-19.2 94.4-57.6 0-40-28.8-60.8-86.4-60.8-65.6 0-99.2 19.2-99.2 57.6 0 41.6 30.4 60.8 91.2 60.8zM208 448c-46.4 0-70.4 25.6-70.4 76.8 0 56 24 83.2 70.4 83.2 22.4 0 40-8 52.8-25.6 11.2-16 16-33.6 16-56 0-52.8-24-78.4-68.8-78.4zM548.8 960c-22.4 0-40-8-56-24s-22.4-36.8-22.4-59.2c0-22.4 8-41.6 22.4-57.6 16-16 33.6-24 56-24 20.8 0 38.4 8 54.4 24s22.4 35.2 22.4 57.6c0 22.4-8 43.2-22.4 59.2-16 16-33.6 24-54.4 24zM611.2 704h-126.4c1.6-14.4 0-36.8 0-70.4v-348.8c0-35.2 1.6-64 0-76.8h126.4c-1.6 16-4.8 44.8-4.8 83.2v344c0 32 3.2 54.4 4.8 68.8zM889.6 315.2c-33.6 0-49.6 25.6-49.6 75.2v206.4h49.6c9.6 0 17.6 0 27.2 0s14.4 0 19.2 0v107.2h-96v48c0 17.6 3.2 33.6 4.8 44.8h-129.6c1.6-9.6 1.6-25.6 1.6-46.4v-46.4h-56v-107.2c16 1.6 28.8 3.2 38.4 3.2l17.6-1.6v-201.6c0-62.4 8-108.8 24-137.6 20.8-38.4 57.6-57.6 112-57.6 38.4 0 73.6 8 99.2 22.4v112c-19.2-14.4-38.4-20.8-62.4-20.8z" horiz-adv-x="960" />
<glyph unicode="&#xe61e;" d="M512 947.2c-283.2 0-512-228.8-512-512 0-225.6 147.2-417.6 350.4-486.4 25.6-4.8 35.2 11.2 35.2 24s0 52.8 0 96c-142.4-30.4-172.8 60.8-172.8 60.8-24 59.2-57.6 75.2-57.6 75.2-46.4 32 3.2 30.4 3.2 30.4 51.2-3.2 78.4-52.8 78.4-52.8 46.4-78.4 120-56 148.8-43.2 4.8 33.6 17.6 56 32 68.8-113.6 12.8-233.6 57.6-233.6 252.8 0 56 19.2 100.8 52.8 137.6-4.8 12.8-22.4 65.6 4.8 136 0 0 43.2 14.4 140.8-52.8 41.6 11.2 84.8 17.6 128 17.6s88-6.4 128-17.6c97.6 65.6 140.8 52.8 140.8 52.8 27.2-70.4 9.6-123.2 4.8-136 33.6-35.2 52.8-81.6 52.8-137.6 0-196.8-120-240-233.6-252.8 17.6-16 35.2-46.4 35.2-94.4 0-68.8 0-123.2 0-140.8 0-14.4 9.6-28.8 35.2-24 203.2 68.8 350.4 260.8 350.4 486.4 0 283.2-228.8 512-512 512zM193.6 212.8c-1.6-3.2-4.8-3.2-8-1.6s-6.4 4.8-4.8 8c1.6 3.2 4.8 3.2 9.6 1.6 3.2-3.2 4.8-6.4 3.2-8v0zM214.4 188.8c-3.2-1.6-8-1.6-11.2 1.6s-3.2 8-1.6 11.2c3.2 1.6 6.4 1.6 11.2-1.6 3.2-3.2 4.8-8 1.6-11.2v0zM235.2 160c-3.2-1.6-8 0-11.2 4.8s-3.2 9.6 0 12.8c3.2 1.6 8 0 11.2-4.8s3.2-11.2 0-12.8v0zM262.4 131.2c-3.2-3.2-8-1.6-12.8 1.6-4.8 4.8-6.4 9.6-3.2 12.8s9.6 1.6 12.8-1.6c4.8-3.2 6.4-9.6 3.2-12.8v0zM300.8 115.2c-1.6-4.8-6.4-6.4-12.8-4.8s-9.6 6.4-8 11.2c1.6 4.8 6.4 6.4 12.8 4.8 4.8-3.2 9.6-8 8-11.2v0zM342.4 112c0-4.8-4.8-8-11.2-8s-11.2 3.2-11.2 8c0 4.8 4.8 8 11.2 8 6.4-1.6 11.2-4.8 11.2-8v0zM380.8 118.4c0-4.8-3.2-8-9.6-9.6s-11.2 1.6-12.8 4.8c0 4.8 3.2 8 9.6 9.6 8 1.6 12.8-1.6 12.8-4.8v0z" />
<glyph unicode="&#xe61f;" d="M459.2 300.8l-171.2-296h564.8l171.2 296h-564.8zM976 384l-292.8 507.2h-342.4l292.8-507.2h342.4zM292.8 808l-292.8-507.2 171.2-296 292.8 507.2-171.2 296z" />
<glyph unicode="&#xe620;" d="M547.2 368c-104 73.6-144 108.8-76.8 168s120 107.2 120 216c0 108.8-91.2 164.8-91.2 164.8s65.6-9.6 100.8 9.6c35.2 19.2 49.6 32 49.6 32h-332.8c-65.6 1.6-251.2-73.6-251.2-251.2s192-214.4 262.4-211.2c-38.4-48-6.4-91.2 16-113.6 20.8-22.4 16-28.8-8-28.8-27.2-1.6-336-4.8-336-225.6s411.2-236.8 545.6-118.4c136 120 105.6 283.2 1.6 358.4zM348.8 539.2c-164.8 0-240 387.2-44.8 387.2 152 4.8 265.6-387.2 44.8-387.2zM329.6-3.2c-137.6 0-211.2 68.8-211.2 171.2s100.8 153.6 288 153.6c51.2-40 142.4-86.4 142.4-182.4s-81.6-142.4-219.2-142.4zM835.2 832v124.8h-65.6v-124.8h-128v-65.6h128v-126.4h65.6v126.4h124.8v65.6h-124.8z" horiz-adv-x="960" />
<glyph unicode="&#xe621;" d="M534.4-64c-14.4 0-30.4 0-44.8 0 0 0-1.6 0-1.6 0-20.8 1.6-40 3.2-60.8 6.4-52.8 8-104 25.6-150.4 49.6-78.4 41.6-144 99.2-192 174.4-51.2 78.4-78.4 163.2-83.2 256 0 1.6 0 1.6 0 3.2 0 14.4 0 30.4 0 44.8 0 0 0 1.6 0 1.6 0 9.6 1.6 17.6 1.6 27.2 3.2 38.4 11.2 76.8 24 113.6 33.6 99.2 92.8 182.4 177.6 244.8 83.2 62.4 177.6 96 283.2 102.4 1.6 0 1.6 0 1.6 0 14.4 0 30.4 0 44.8 0 0 0 1.6 0 1.6 0 20.8-1.6 40-3.2 60.8-6.4 52.8-9.6 104-25.6 150.4-51.2 80-41.6 144-99.2 193.6-174.4 51.2-76.8 78.4-161.6 81.6-254.4 0-1.6 0-1.6 0-3.2 0-14.4 0-30.4 0-44.8 0 0 0-1.6 0-1.6-1.6-20.8-3.2-40-6.4-60.8-8-52.8-25.6-104-49.6-150.4-41.6-78.4-99.2-144-174.4-192-78.4-51.2-163.2-78.4-256-83.2 0-1.6 0-1.6-1.6-1.6zM512 854.4c-4.8 0-11.2 0-16 0-30.4-1.6-59.2-4.8-88-12.8-68.8-19.2-129.6-54.4-180.8-104-51.2-51.2-86.4-110.4-105.6-180.8-11.2-38.4-14.4-78.4-14.4-118.4 0-11.2 1.6-22.4 3.2-33.6 6.4-24 20.8-38.4 46.4-43.2 16-3.2 32 1.6 48 8 24 9.6 43.2 25.6 60.8 43.2 22.4 24 40 49.6 49.6 80 14.4 40 19.2 80 19.2 121.6 0 20.8-1.6 41.6-3.2 64-1.6 19.2-4.8 40-6.4 59.2-1.6 8 1.6 11.2 9.6 8 6.4-1.6 12.8-3.2 19.2-6.4 43.2-12.8 83.2-30.4 121.6-57.6 51.2-35.2 94.4-76.8 136-123.2 38.4-41.6 72-86.4 104-132.8 16-22.4 33.6-41.6 54.4-59.2 20.8-16 43.2-28.8 68.8-33.6 24-4.8 44.8 4.8 57.6 25.6 8 12.8 12.8 27.2 14.4 41.6 4.8 28.8 4.8 57.6 1.6 86.4-3.2 32-9.6 64-20.8 94.4-25.6 72-67.2 132.8-126.4 180.8-72 62.4-156.8 92.8-252.8 92.8z" />
<glyph unicode="&#xe622;" d="M753.6 776l-153.6 147.2c-25.6 22.4-35.2 36.8-62.4 36.8h-507.2c-25.6 0-25.6-25.6-25.6-25.6v-787.2c0-25.6 25.6-52.8 25.6-52.8l132.8-131.2c25.6-25.6 25.6-25.6 52.8-25.6h513.6c0 0 0 0 0 0s0 0 0 0v0c0 0 0 0 0 0 3.2 0 8 0 11.2 1.6 12.8 4.8 19.2 16 19.2 28.8v785.6c3.2 8 0 16-6.4 22.4zM57.6 198.4v683.2c0 25.6 0 25.6 27.2 25.6h153.6c27.2 0 27.2 0 27.2-25.6v-209.6c0-25.6 6.4-25.6 33.6-25.6s33.6 0 33.6 25.6v209.6c0 25.6 0 25.6 27.2 25.6h153.6c27.2 0 27.2 0 27.2-25.6v-683.2c0-25.6 0-25.6-27.2-25.6h-153.6c-27.2 0-27.2 0-27.2 25.6v209.6c0 25.6-6.4 25.6-33.6 25.6s-33.6 0-33.6-25.6v-209.6c0-25.6 0-25.6-27.2-25.6h-153.6c-27.2 0-27.2 0-27.2 25.6zM390.4-11.2h-160c-12.8 0-12.8 0-27.2 12.8l-107.2 105.6c-12.8 12.8-12.8 12.8 0 12.8h160c12.8 0 12.8 0 27.2-12.8l105.6-105.6c14.4-12.8 14.4-12.8 1.6-12.8zM656-11.2h-160c-12.8 0-12.8 0-27.2 12.8l-107.2 105.6c-12.8 12.8-12.8 12.8 0 12.8h160c12.8 0 12.8 0 27.2-12.8l56-54.4 60.8-62.4c0-1.6-3.2-1.6-9.6-1.6zM708.8 40l-118.4 120v686.4l118.4-112v-694.4z" horiz-adv-x="768" />
<glyph unicode="&#xe623;" d="M0 960v-1024h1024v1024h-1024zM556.8 369.6v-251.2h-91.2v251.2l-224 443.2h105.6l164.8-334.4 169.6 334.4h99.2l-224-443.2z" />
<glyph unicode="&#xe624;" d="M12.8 960l83.2-920 368-104 368 104 83.2 920h-902.4zM736 659.2h-432l9.6-115.2h412.8l-32-348.8-230.4-64h-3.2l-232 64-14.4 177.6h112l8-89.6 124.8-33.6 126.4 33.6 14.4 145.6h-388.8l-30.4 342.4h566.4l-11.2-112z" horiz-adv-x="928" />
<glyph unicode="&#xe625;" d="M772.8 369.6h248c1.6 17.6 3.2 35.2 3.2 52.8 0 84.8-22.4 163.2-62.4 232 41.6 108.8 40 201.6-16 256-52.8 51.2-192 43.2-350.4-27.2-11.2 1.6-24 1.6-35.2 1.6-216 0-398.4-148.8-448-350.4 68.8 86.4 139.2 150.4 235.2 196.8-8-8-59.2-59.2-67.2-67.2-252.8-252.8-332.8-582.4-246.4-667.2 65.6-65.6 182.4-54.4 318.4 12.8 62.4-32 134.4-49.6 209.6-49.6 203.2 0 376 131.2 438.4 313.6h-251.2c-35.2-64-102.4-107.2-179.2-107.2s-144 43.2-179.2 107.2c-16 28.8-24 62.4-24 96v0h406.4zM366.4 491.2c6.4 102.4 91.2 184 195.2 184s188.8-81.6 195.2-184h-390.4zM944 857.6c35.2-35.2 35.2-100.8 4.8-182.4-52.8 78.4-128 140.8-216 176 94.4 41.6 172.8 46.4 211.2 6.4zM97.6 12.8c-44.8 44.8-32 139.2 27.2 252.8 36.8-100.8 107.2-185.6 196.8-241.6-99.2-44.8-182.4-52.8-224-11.2z" />
<glyph unicode="&#xe626;" d="M131.2 960h761.6c72 0 131.2-52.8 131.2-131.2v-761.6c0-78.4-59.2-131.2-131.2-131.2h-761.6c-72 0-131.2 52.8-131.2 131.2v761.6c0 78.4 59.2 131.2 131.2 131.2v0zM745.6 846.4c-25.6 0-46.4-20.8-46.4-46.4v-110.4c0-25.6 20.8-46.4 46.4-46.4h115.2c25.6 0 46.4 20.8 46.4 46.4v110.4c0 25.6-20.8 46.4-46.4 46.4h-115.2zM908.8 526.4h-89.6c8-27.2 12.8-57.6 12.8-88 0-169.6-142.4-308.8-318.4-308.8s-318.4 137.6-318.4 308.8c0 30.4 4.8 60.8 12.8 88h-94.4v-432c0-22.4 17.6-40 40-40h713.6c22.4 0 40 17.6 40 40l1.6 432zM513.6 649.6c-113.6 0-206.4-89.6-206.4-200s92.8-198.4 206.4-198.4c113.6 0 206.4 89.6 206.4 200s-92.8 198.4-206.4 198.4z" />
<glyph unicode="&#xe627;" d="M265.6 683.2c33.6 33.6 86.4 33.6 118.4 0l8-8 100.8 100.8-6.4 8c-57.6 57.6-139.2 78.4-212.8 60.8-11.2 65.6-67.2 115.2-136 115.2-75.2 0-136-60.8-136-137.6 0-65.6 44.8-120 107.2-134.4-22.4-76.8-4.8-164.8 57.6-225.6l227.2-227.2 100.8 100.8-228.8 228.8c-32 32-32 84.8 0 118.4zM1022.4 822.4c0 75.2-60.8 137.6-137.6 137.6-68.8 0-126.4-51.2-136-118.4-75.2 22.4-163.2 3.2-224-57.6l-227.2-227.2 100.8-100.8 227.2 227.2c33.6 33.6 86.4 33.6 118.4 0s32-86.4 0-118.4l-8-8 100.8-100.8 8 8c60.8 60.8 80 147.2 57.6 224 68.8 8 120 65.6 120 134.4zM905.6 209.6c17.6 75.2-1.6 156.8-60.8 214.4l-225.6 227.2-100.8-100.8 227.2-228.8c33.6-33.6 33.6-86.4 0-118.4-32-33.6-86.4-33.6-118.4 0l-8 8-100.8-100.8 8-8c60.8-62.4 150.4-80 227.2-56 12.8-62.4 67.2-110.4 134.4-110.4 75.2 0 137.6 60.8 137.6 137.6-1.6 68.8-52.8 126.4-120 136zM612.8 432l-227.2-228.8c-32-32-86.4-33.6-118.4 0-33.6 33.6-33.6 86.4 0 118.4l8 8-102.4 102.4-8-8c-59.2-59.2-78.4-142.4-59.2-217.6-60.8-14.4-105.6-68.8-105.6-132.8 0-76.8 60.8-137.6 137.6-137.6 65.6 0 120 44.8 132.8 105.6 75.2-19.2 156.8 1.6 216 59.2l227.2 227.2-100.8 104z" />
<glyph unicode="&#xe628;" d="M899.2 480c0 6.4 1.6 11.2 1.6 17.6 0 166.4-136 299.2-304 299.2-121.6 0-225.6-70.4-275.2-171.2-24 17.6-52.8 28.8-86.4 28.8-78.4 0-140.8-62.4-140.8-137.6 0-14.4 1.6-28.8 6.4-41.6-60.8-33.6-100.8-99.2-100.8-172.8 0-110.4 91.2-201.6 203.2-203.2h609.6c3.2 0 8 0 11.2 0 112 0 201.6 89.6 201.6 198.4-1.6 81.6-52.8 152-126.4 182.4zM275.2 251.2c-20.8 19.2-33.6 41.6-38.4 67.2-1.6 9.6-3.2 17.6-3.2 27.2 0 38.4 14.4 68.8 41.6 92.8s62.4 36.8 104 36.8c43.2 0 84.8-16 121.6-49.6 9.6-8 17.6-17.6 25.6-27.2l46.4-54.4c8-11.2 16-20.8 25.6-28.8 24-20.8 49.6-32 72-32 19.2 0 33.6 6.4 46.4 17.6 11.2 11.2 17.6 22.4 19.2 36.8v6.4c0 6.4-1.6 12.8-3.2 17.6-3.2 9.6-8 17.6-16 25.6-12.8 11.2-28.8 17.6-46.4 17.6-24 0-46.4-8-72-32l-41.6 48-4.8 6.4c36.8 35.2 72 48 120 48 43.2 0 78.4-12.8 104-36.8v0c27.2-24 40-56 40-94.4 0-9.6-1.6-19.2-3.2-27.2-4.8-25.6-17.6-48-38.4-67.2s-44.8-30.4-73.6-35.2c-9.6-1.6-19.2-1.6-30.4-1.6-44.8 0-86.4 16-121.6 48-9.6 8-19.2 17.6-27.2 28.8l-41.6 56c-8 11.2-16 20.8-25.6 28.8-24 20.8-49.6 32-72 32-6.4 0-12.8-1.6-19.2-3.2-9.6-3.2-19.2-8-27.2-14.4-9.6-9.6-16-19.2-17.6-30.4 0-3.2-1.6-8-1.6-12.8 0-16 6.4-30.4 17.6-43.2l1.6-1.6c12.8-11.2 28.8-17.6 48-17.6 24 0 46.4 8 72 32l41.6-48 4.8-4.8c-36.8-35.2-73.6-49.6-120-49.6-44.8 1.6-80 14.4-107.2 38.4z" />
<glyph unicode="&#xe629;" d="M851.2 960h-678.4c-96 0-172.8-76.8-172.8-172.8v-680c0-94.4 76.8-171.2 172.8-171.2h680c94.4 0 171.2 76.8 171.2 172.8v678.4c0 96-76.8 172.8-172.8 172.8zM843.2 152c-113.6-36.8-334.4-110.4-376-120s-83.2-27.2-108.8 41.6c0 0-203.2 603.2-222.4 656-17.6 52.8-35.2 84.8 6.4 102.4 97.6 38.4 198.4 88 217.6 32 16-51.2 195.2-608 195.2-608s209.6 73.6 267.2 89.6 76.8 27.2 92.8-51.2c12.8-80 41.6-104-72-142.4z" />
<glyph unicode="&#xe62a;" d="M827.2 502.4c-80 24-108.8 36.8-108.8 64 0 44.8 64 54.4 70.4 56 40 6.4 107.2-4.8 124.8-59.2l108.8 33.6c-33.6 108.8-152 150.4-251.2 136-100.8-14.4-168-81.6-168-166.4 0-113.6 110.4-147.2 190.4-169.6 84.8-25.6 113.6-40 113.6-70.4 0-25.6-20.8-38.4-62.4-49.6-81.6-20.8-192 0-220.8 49.6-17.6 28.8-33.6 70.4-49.6 112-48 128-115.2 302.4-307.2 302.4-99.2-1.6-267.2-41.6-267.2-315.2 0-113.6 81.6-268.8 264-268.8 153.6 0 179.2 62.4 185.6 73.6l-49.6 97.6c-1.6-1.6-48-59.2-136-59.2-144 0-150.4 155.2-150.4 156.8 0 142.4 46.4 201.6 153.6 201.6 105.6 0 147.2-91.2 200-228.8 17.6-48 35.2-92.8 57.6-129.6 48-78.4 156.8-112 260.8-112 32 0 62.4 3.2 89.6 11.2 91.2 24 147.2 80 147.2 156.8 0 118.4-112 152-195.2 177.6z" />
<glyph unicode="&#xe62b;" d="M1024 473.6c0 41.6-46.4 60.8-60.8 60.8-12.8 0-313.6 0-313.6 0s30.4 132.8 32 179.2c1.6 46.4-44.8 145.6-54.4 153.6s-59.2 17.6-81.6-8c1.6-35.2 6.4-144 6.4-144s-73.6-131.2-115.2-196.8c-43.2-65.6-96-97.6-96-97.6v-331.2c0 0 19.2 0 28.8 0s46.4-33.6 73.6-33.6c27.2 0 345.6 0 390.4 0 33.6 0 89.6 3.2 89.6 57.6 0 20.8-12.8 41.6-22.4 44.8 0 4.8 0 6.4 0 6.4s54.4 17.6 54.4 65.6c0 27.2-22.4 40-22.4 40l3.2 12.8c0 0 51.2 19.2 51.2 67.2 0 30.4-20.8 35.2-20.8 35.2l3.2 14.4c3.2 3.2 54.4 24 54.4 73.6zM238.4 465.6h-187.2c-28.8 0-51.2-22.4-51.2-51.2l33.6-340.8c0-28.8 22.4-51.2 51.2-51.2h153.6c28.8 0 51.2 22.4 51.2 51.2v340.8c0 27.2-22.4 51.2-51.2 51.2z" />
<glyph unicode="&#xe62c;" d="M17.6-19.2h209.6v628.8h-209.6v-628.8zM763.2 630.4c-91.2 0-145.6-33.6-203.2-107.2v86.4h-208v-628.8h209.6v340.8c0 72 36.8 142.4 120 142.4s132.8-70.4 132.8-140.8v-342.4h209.6v356.8c0 248-168 292.8-260.8 292.8zM123.2 915.2c-68.8 0-123.2-49.6-123.2-110.4s54.4-110.4 123.2-110.4c68.8 0 123.2 49.6 123.2 110.4s-54.4 110.4-123.2 110.4z" />
<glyph unicode="&#xe62d;" d="M862.4 124.8c-27.2 11.2-49.6 28.8-48 62.4s-24 56-24 56 22.4 73.6 1.6 134.4c-20.8 60.8-89.6 156.8-140.8 230.4-52.8 73.6-8 158.4-56 265.6-48 108.8-171.2 102.4-238.4 56s-46.4-160-43.2-214.4c3.2-54.4 1.6-92.8-4.8-107.2s-49.6-65.6-78.4-108.8c-28.8-43.2-49.6-132.8-70.4-169.6s-6.4-70.4-6.4-70.4-14.4-3.2-25.6-27.2c-11.2-24-33.6-35.2-73.6-43.2s-40-33.6-30.4-62.4c9.6-28.8 0-44.8-11.2-81.6s44.8-48 99.2-54.4c54.4-6.4 115.2-41.6 164.8-48 51.2-6.4 67.2 35.2 67.2 35.2s57.6 12.8 118.4 14.4c60.8 1.6 118.4-12.8 118.4-12.8s11.2-25.6 32-36.8c20.8-11.2 65.6-12.8 94.4 17.6s105.6 68.8 147.2 92.8c41.6 25.6 35.2 60.8 8 72v0zM489.6 827.2c27.2 0 49.6-27.2 49.6-60.8 0-24-11.2-44.8-27.2-54.4-4.8 1.6-8 3.2-12.8 4.8 9.6 4.8 16 17.6 16 32 0 19.2-11.2 33.6-25.6 33.6s-25.6-16-25.6-33.6c0-6.4 1.6-14.4 4.8-19.2-8 3.2-16 6.4-22.4 8-3.2 8-4.8 17.6-4.8 27.2-1.6 35.2 20.8 62.4 48 62.4v0zM486.4 699.2c14.4-4.8 28.8-12.8 27.2-22.4s-8-9.6-27.2-20.8c-17.6-11.2-59.2-35.2-72-36.8s-20.8 4.8-33.6 14.4c-14.4 9.6-40 30.4-33.6 41.6 0 0 20.8 16 28.8 24s32 27.2 44.8 25.6c14.4-4.8 51.2-20.8 65.6-25.6v0zM363.2 817.6c20.8 0 38.4-25.6 38.4-57.6 0-6.4 0-11.2-1.6-16-4.8-1.6-11.2-4.8-16-9.6-3.2-1.6-4.8-4.8-6.4-6.4 3.2 6.4 4.8 16 3.2 25.6-3.2 17.6-14.4 30.4-25.6 27.2-11.2-1.6-17.6-17.6-16-35.2 3.2-17.6 14.4-30.4 25.6-28.8 0 0 1.6 0 1.6 0-4.8-4.8-11.2-9.6-16-14.4-16 8-27.2 28.8-27.2 54.4 0 35.2 17.6 60.8 40 60.8v0zM320 12.8c-4.8-22.4-32-40-32-40-24-8-91.2 20.8-121.6 33.6s-108.8 16-118.4 27.2c-9.6 11.2 4.8 36.8 9.6 60.8 3.2 24-8 40-3.2 56 3.2 16 52.8 16 72 27.2s22.4 44.8 38.4 52.8c14.4 9.6 43.2-22.4 54.4-40s54.4-94.4 72-113.6c17.6-16 35.2-40 28.8-64v0zM601.6 235.2c-4.8-22.4-4.8-104-4.8-104s-49.6-68.8-126.4-80c-76.8-11.2-115.2-3.2-115.2-3.2l-43.2 49.6c0 0 33.6 4.8 28.8 38.4s-102.4 80-120 121.6c-17.6 41.6-3.2 112 19.2 147.2s36.8 112 59.2 137.6c22.4 25.6 40 80 32 104 0 0 48-57.6 81.6-48s108.8 65.6 120 56c11.2-9.6 107.2-219.2 116.8-286.4s-6.4-118.4-6.4-118.4-36.8 8-41.6-14.4v0zM846.4 84.8c-14.4-14.4-97.6-46.4-123.2-73.6-24-25.6-56-46.4-76.8-40-19.2 6.4-36.8 33.6-28.8 73.6s16 83.2 14.4 107.2c-1.6 24-6.4 57.6 0 62.4s16 3.2 16 3.2-4.8-46.4 24-59.2c28.8-12.8 68.8 4.8 81.6 17.6s20.8 30.4 20.8 30.4 12.8-6.4 11.2-25.6c-1.6-19.2 8-48 27.2-57.6 20.8-11.2 48-24 33.6-38.4v0z" horiz-adv-x="896" />
<glyph unicode="&#xe62e;" d="M524.8 33.6c201.6 30.4 499.2 392 499.2 580.8 0 145.6-108.8 249.6-256 249.6-124.8 0-227.2-94.4-256-168-28.8 73.6-131.2 168-256 168-147.2 0-256-104-256-249.6 0-188.8 297.6-550.4 499.2-580.8 0 0 8-1.6 12.8-1.6 4.8 1.6 12.8 1.6 12.8 1.6z" />
<glyph unicode="&#xe62f;" d="M752 134.4v492.8l-320 198.4-320-198.4v-492.8l-115.2 70.4v486.4l435.2 268.8 435.2-268.8v-486.4l-115.2-70.4zM368 78.4l64-40 64 40v571.2l140.8-86.4v-500.8l-204.8-126.4-204.8 126.4v500.8l140.8 86.4v-571.2zM752 627.2l-320 198.4-320-198.4-115.2 64 435.2 268.8 435.2-268.8-115.2-64zM636.8 563.2l-140.8-80v166.4l140.8-86.4zM368 483.2l-140.8 78.4 140.8 86.4v-164.8z" horiz-adv-x="864" />
<glyph unicode="&#xe630;" d="M848 420.8c88 0 160 72 160 158.4s-72 158.4-160 158.4c-88 0-160-72-160-158.4 1.6-88 72-158.4 160-158.4zM862.4 384c-1.6 0-3.2 0-3.2 0-1.6 0-1.6 0-3.2 0-3.2 0-4.8 0-8 0v0 0c-3.2 0-4.8 0-8 0-1.6 0-1.6 0-3.2 0s-1.6 0-3.2 0c-89.6-8-161.6-88-161.6-180.8v-62.4c0-8 6.4-16 16-16h320c9.6 0 16 8 16 16v62.4c0 91.2-70.4 172.8-161.6 180.8zM478.4 390.4c80 0 144 64 144 144 0 78.4-64 142.4-144 142.4s-144-64-144-142.4c0-80 64-144 144-144zM491.2 356.8c-1.6 0-1.6 0-3.2 0s-1.6 0-3.2 0-4.8 0-6.4 0v0 0c-1.6 0-4.8 0-6.4 0s-1.6 0-3.2 0-1.6 0-3.2 0c-81.6-6.4-145.6-80-145.6-161.6v-56c0-8 6.4-14.4 14.4-14.4h286.4c8 0 14.4 6.4 14.4 14.4v0 56c1.6 83.2-62.4 155.2-144 161.6zM142.4 364.8c72 0 129.6 57.6 129.6 128 0 72-57.6 129.6-129.6 129.6s-129.6-57.6-129.6-129.6c0-70.4 57.6-128 129.6-128zM153.6 334.4c-1.6 0-1.6 0-3.2 0s-1.6 0-3.2 0-4.8 0-6.4 0v0 0c-1.6 0-3.2 0-6.4 0 0 0-1.6 0-1.6 0-1.6 0-1.6 0-3.2 0-72-6.4-129.6-72-129.6-145.6v-49.6c0-6.4 6.4-12.8 12.8-12.8h259.2c8 0 12.8 6.4 12.8 12.8v49.6c0 73.6-57.6 139.2-131.2 145.6z" />
<glyph unicode="&#xe631;" d="M268.8 238.4c-80 8-150.4 27.2-212.8 75.2-8 6.4-16 11.2-22.4 17.6-27.2 25.6-28.8 56-8 86.4 17.6 25.6 48 33.6 80 17.6 6.4-3.2 11.2-6.4 17.6-9.6 113.6-78.4 270.4-80 385.6-3.2 11.2 8 24 16 36.8 19.2 27.2 6.4 52.8-3.2 67.2-27.2 16-27.2 16-54.4-4.8-75.2-32-32-70.4-56-112-72-40-16-83.2-24-128-28.8 6.4-6.4 9.6-11.2 14.4-14.4 59.2-59.2 118.4-118.4 177.6-177.6 20.8-20.8 24-44.8 12.8-68.8-12.8-25.6-38.4-43.2-65.6-41.6-16 1.6-30.4 9.6-41.6 20.8-44.8 44.8-89.6 88-132.8 134.4-12.8 12.8-19.2 11.2-30.4 0-44.8-46.4-89.6-91.2-136-136-20.8-20.8-44.8-24-68.8-12.8-25.6 12.8-41.6 38.4-40 64 1.6 17.6 9.6 30.4 20.8 43.2 57.6 57.6 116.8 116.8 174.4 174.4 8 4.8 11.2 8 16 14.4zM318.4 441.6c-142.4 0-257.6 118.4-257.6 259.2 1.6 144 116.8 259.2 260.8 259.2s257.6-118.4 257.6-262.4c-1.6-142.4-118.4-256-260.8-256zM446.4 700.8c0 70.4-56 126.4-126.4 126.4s-128-57.6-126.4-128c0-70.4 57.6-126.4 128-124.8 68.8 0 124.8 56 124.8 126.4z" horiz-adv-x="640" />
<glyph unicode="&#xe632;" d="M465.6 846.4v-872l155.2 72v875.2zM1003.2 590.4l20.8-222.4-299.2 65.6zM648 635.2v-99.2c65.6-11.2 123.2-32 169.6-60.8l110.4 67.2c-75.2 46.4-172.8 80-280 92.8zM155.2 305.6c0 110.4 120 203.2 283.2 230.4v99.2c-249.6-30.4-438.4-166.4-438.4-329.6 0-169.6 201.6-308.8 465.6-332.8v97.6c-177.6 22.4-310.4 120-310.4 235.2z" />
<glyph unicode="&#xe633;" d="M494.4 960c-280 0-480-203.2-480-507.2-1.6-270.4 193.6-516.8 480-516.8 288 0 484.8 246.4 484.8 516.8 0 307.2-208 507.2-484.8 507.2zM672 460.8c0-169.6-9.6-411.2-177.6-411.2v0c-166.4 1.6-174.4 243.2-174.4 411.2 0 198.4 19.2 388.8 172.8 388.8 156.8 0 179.2-192 179.2-388.8z" horiz-adv-x="992" />
<glyph unicode="&#xe634;" d="M932.8 720c-9.6 11.2-20.8 22.4-33.6 32 1.6-30.4-1.6-64-8-99.2-20.8-94.4-68.8-176-140.8-233.6s-160-88-257.6-88h-142.4l-46.4-214.4c-9.6-41.6-46.4-73.6-89.6-73.6h-64l-11.2-52.8c-3.2-14.4 0-27.2 9.6-38.4 8-11.2 22.4-17.6 35.2-17.6h156.8c22.4 0 40 14.4 44.8 36.8l54.4 252.8h179.2c86.4 0 166.4 27.2 228.8 78.4s105.6 123.2 124.8 208c17.6 84.8 4.8 155.2-40 209.6zM259.2 126.4l54.4 251.2h179.2c86.4 0 166.4 27.2 228.8 78.4s105.6 123.2 124.8 208c17.6 84.8 4.8 156.8-38.4 211.2-43.2 52.8-115.2 84.8-190.4 84.8h-390.4c-22.4 0-40-14.4-44.8-36.8l-169.6-776c-3.2-14.4 0-27.2 9.6-38.4 8-11.2 22.4-17.6 35.2-17.6h156.8c22.4 0 41.6 14.4 44.8 35.2zM403.2 782.4h123.2c28.8 0 54.4-12.8 70.4-33.6 17.6-22.4 22.4-52.8 14.4-84.8 0 0 0-1.6 0-1.6-16-65.6-80-118.4-142.4-118.4h-118.4l52.8 238.4z" horiz-adv-x="992" />
<glyph unicode="&#xe635;" d="M283.2 371.2l-1.6-9.6c3.2 22.4 22.4 38.4 44.8 38.4h92.8c180.8 0 323.2 73.6 364.8 286.4 1.6 6.4 1.6 12.8 3.2 17.6v0c12.8 78.4 0 132.8-43.2 180.8-48 52.8-132.8 75.2-241.6 75.2h-313.6c-22.4 0-41.6-16-44.8-38.4l-131.2-828.8c-3.2-16 9.6-30.4 27.2-30.4h193.6l49.6 308.8zM843.2 656c-3.2 3.2-4.8 6.4-8 8 0 0 0 0 0 0-40-208-180.8-318.4-403.2-318.4h-92.8c-1.6 0-3.2-1.6-4.8-3.2v0l-49.6-318.4c-1.6-11.2-8-14.4-17.6-14.4h-6.4c-9.6 0-20.8-8-22.4-19.2l-4.8-25.6c-1.6-14.4 9.6-27.2 24-27.2h163.2c19.2 0 35.2 14.4 38.4 33.6l1.6 8 30.4 195.2 1.6 11.2c3.2 19.2 19.2 33.6 38.4 33.6h24c158.4 0 281.6 64 318.4 249.6 17.6 75.2 9.6 140.8-30.4 187.2z" horiz-adv-x="896" />
<glyph unicode="&#xe636;" d="M768 897.6c-72 40-168 62.4-256 62.4-51.2 0-100.8-8-148.8-22.4l404.8-416v376zM288 894.4c-187.2-75.2-288-276.8-288-446.4 0-30.4 3.2-60.8 8-91.2l451.2 348.8-171.2 188.8zM832 860.8v-601.6h150.4c35.2 68.8 41.6 105.6 41.6 188.8 0 176-56 320-192 412.8zM256 6.4v438.4l-212.8-171.2c33.6-121.6 108.8-200 212.8-267.2zM448 190.4h-128v-219.2c70.4-36.8 91.2-36.8 192-36.8 182.4 0 342.4 112 432 254.4h-496z" />
<glyph unicode="&#xe637;" d="M0 960v-1024h1024v1024h-1024zM625.6 248h-64v-150.4h-115.2v374.4c-17.6-3.2-36.8-6.4-57.6-6.4h-64v-150.4h-116.8v483.2h179.2c118.4 0 190.4-62.4 190.4-166.4 0-19.2-3.2-36.8-8-52.8h54.4c118.4 0 190.4-62.4 190.4-166.4 1.6-100.8-70.4-164.8-188.8-164.8zM392 692.8h-67.2v-126.4h67.2c49.6 0 70.4 25.6 70.4 64 0 36.8-22.4 62.4-70.4 62.4zM628.8 475.2h-67.2v-126.4h67.2c49.6 0 70.4 25.6 70.4 64 0 36.8-22.4 62.4-70.4 62.4z" />
<glyph unicode="&#xe638;" d="M512 960c-283.2 0-512-228.8-512-512 0-211.2 128-392 308.8-470.4-1.6 35.2 0 78.4 9.6 116.8 9.6 41.6 65.6 280 65.6 280s-16 33.6-16 81.6c0 76.8 44.8 132.8 99.2 132.8 46.4 0 68.8-35.2 68.8-76.8 0-46.4-30.4-116.8-44.8-182.4-12.8-54.4 27.2-99.2 81.6-99.2 97.6 0 163.2 124.8 163.2 273.6 0 112-75.2 196.8-214.4 196.8-155.2 0-252.8-116.8-252.8-246.4 0-44.8 12.8-76.8 33.6-100.8 9.6-11.2 11.2-16 8-28.8-3.2-9.6-8-32-11.2-41.6-3.2-12.8-14.4-17.6-25.6-12.8-72 28.8-105.6 107.2-105.6 196.8 0 145.6 123.2 321.6 368 321.6 196.8 0 324.8-142.4 324.8-294.4 0-201.6-112-352-276.8-352-56 0-107.2 30.4-124.8 64 0 0-30.4-118.4-36.8-140.8-11.2-38.4-32-78.4-51.2-108.8 44.8-14.4 91.2-20.8 140.8-20.8 283.2 0 512 228.8 512 512s-228.8 512-512 512z" />
<glyph unicode="&#xe639;" d="M486.4-64c16 0 33.6-1.6 51.2 0 272 14.4 486.4 240 486.4 513.6 0 38.4-4.8 75.2-12.8 112-8-75.2-48-142.4-112-184l-387.2-224-168 96-62.4 38.4v-131.2c3.2-112 91.2-208 204.8-220.8zM81.6 726.4c-4.8-6.4-8-14.4-12.8-22.4s-8-14.4-12.8-22.4c-123.2-244.8-35.2-542.4 203.2-676.8 33.6-19.2 67.2-33.6 102.4-44.8-60.8 43.2-99.2 112-104 188.8l-1.6 448 166.4 97.6 64 35.2-113.6 65.6c-32 17.6-68.8 27.2-105.6 27.2-73.6 0-142.4-36.8-185.6-96zM971.2 681.6c-3.2 6.4-8 14.4-12.8 22.4s-9.6 14.4-12.8 22.4c-96 145.6-256 233.6-430.4 233.6-89.6 0-179.2-24-256-68.8-32-19.2-62.4-41.6-89.6-67.2 32 14.4 67.2 22.4 102.4 22.4 38.4 0 78.4-9.6 112-27.2l387.2-224v-193.6l-1.6-73.6 113.6 65.6c96 60.8 132.8 184 88 288z" />
<glyph unicode="&#xe63a;" d="M800 532.8c8 30.4 12.8 60.8 12.8 92.8 1.6 185.6-148.8 334.4-332.8 334.4s-332.8-148.8-332.8-334.4c0-32 4.8-64 12.8-92.8-41.6-33.6-204.8-179.2-137.6-369.6 0 0 56 4.8 104 91.2 14.4-54.4 40-105.6 76.8-147.2-52.8-16-88-44.8-88-80 0-49.6 76.8-91.2 169.6-91.2 64 0 118.4 19.2 148.8 46.4 16-1.6 32-3.2 48-3.2s32 1.6 48 3.2c28.8-27.2 84.8-46.4 148.8-46.4 94.4 0 169.6 41.6 169.6 91.2 0 35.2-35.2 64-88 80 35.2 41.6 62.4 92.8 76.8 147.2 46.4-86.4 104-91.2 104-91.2 64 190.4-99.2 336-140.8 369.6z" horiz-adv-x="960" />
<glyph unicode="&#xe63b;" d="M1022.4 564.8c-3.2 8-9.6 12.8-17.6 14.4l-329.6 30.4-142.4 313.6c-3.2 8-11.2 12.8-19.2 12.8s-16-4.8-19.2-12.8l-147.2-307.2-328-36.8c-8 0-16-6.4-17.6-14.4-3.2-8 0-16 6.4-22.4l241.6-222.4-59.2-334.4c-1.6-8 1.6-16 8-22.4 3.2-3.2 8-3.2 12.8-3.2 3.2 0 8 1.6 11.2 3.2l294.4 169.6 289.6-171.2c8-1.6 16-1.6 24 3.2 6.4 4.8 9.6 12.8 8 20.8l-43.2 248c11.2 4.8 44.8 20.8 64 41.6-28.8-11.2-40-14.4-68.8-20.8v0c-195.2-36.8-492.8-6.4-504-4.8l328 240c-110.4 20.8-368 28.8-384 28.8-1.6 0-3.2 0-1.6 0 0 0 0 0 1.6 0 12.8 1.6 348.8 57.6 544 1.6l-332.8-232c0 0 254.4-24 344-14.4l-6.4 46.4 240 222.4c3.2 4.8 6.4 14.4 3.2 22.4z" />
<glyph unicode="&#xe63c;" d="M852.8 489.6c131.2 38.4 208 177.6 152 180.8-140.8 6.4-262.4 75.2-344 126.4-8 6.4-17.6 11.2-27.2 16v-318.4c0-105.6-64-188.8-136-224-105.6-51.2-222.4-19.2-260.8 70.4-40 89.6 14.4 203.2 118.4 254.4 57.6 28.8 120 30.4 169.6 12.8v246.4c-32 8-64 11.2-99.2 11.2-233.6 0-425.6-193.6-425.6-433.6s192-433.6 428.8-433.6c236.8 0 428.8 193.6 428.8 433.6 0 19.2-1.6 38.4-4.8 57.6z" />
<glyph unicode="&#xe63d;" d="M428.8 380.8c0-37.997-30.803-68.8-68.8-68.8s-68.8 30.803-68.8 68.8c0 37.997 30.803 68.8 68.8 68.8s68.8-30.803 68.8-68.8zM1024 436.8c0 84.8-67.2 155.2-150.4 155.2-28.8 0-56-8-78.4-24-70.4 41.6-160 67.2-257.6 70.4l56 161.6 116.8-27.2c0-3.2-1.6-8-1.6-11.2 0-64 52.8-116.8 116.8-116.8s116.8 52.8 116.8 116.8c0 64-52.8 116.8-116.8 116.8-41.6 0-78.4-22.4-99.2-56l-166.4 40-78.4-224c-97.6-4.8-185.6-32-256-75.2 1.6 1.6 3.2 1.6 3.2 3.2-24 16-51.2 25.6-81.6 25.6-80 0-147.2-70.4-147.2-155.2 0-57.6 30.4-107.2 75.2-132.8 17.6-160 208-284.8 440-284.8 233.6 0 424 128 440 288 41.6 27.2 68.8 75.2 68.8 129.6zM825.6 825.6c35.2 0 64-28.8 64-64s-28.8-64-64-64c-35.2 0-64 28.8-64 64s28.8 64 64 64zM150.4 539.2c11.2 0 22.4-3.2 33.6-6.4-57.6-44.8-96-102.4-107.2-164.8-16 17.6-25.6 41.6-25.6 68.8 0 56 44.8 102.4 99.2 102.4zM515.2 70.4c-214.4 0-390.4 115.2-390.4 259.2 0 142.4 174.4 259.2 390.4 259.2 214.4 0 388.8-115.2 388.8-259.2s-174.4-259.2-388.8-259.2zM950.4 374.4c-12.8 60.8-51.2 116.8-105.6 160 9.6 3.2 19.2 4.8 28.8 4.8 54.4 0 97.6-46.4 97.6-102.4 1.6-24-6.4-44.8-20.8-62.4zM724.8 380.8c0-37.997-30.803-68.8-68.8-68.8s-68.8 30.803-68.8 68.8c0 37.997 30.803 68.8 68.8 68.8s68.8-30.803 68.8-68.8zM644.8 227.2c-145.6-96-264-4.8-268.8-1.6-11.2 9.6-27.2 6.4-36.8-3.2-9.6-11.2-8-27.2 3.2-36.8 1.6-1.6 68.8-54.4 166.4-54.4 48 0 105.6 12.8 164.8 52.8 11.2 8 16 24 8 35.2-8 12.8-24 16-36.8 8z" />
<glyph unicode="&#xe63e;" d="M816 864c-65.6 48-137.6 78.4-216 91.2v-323.2c0-112 28.8-214.4 84.8-305.6 56-92.8 129.6-160 220.8-204.8 80 96 120 204.8 120 329.6 0 83.2-19.2 160-56 233.6-38.4 72-89.6 131.2-153.6 179.2zM340.8 326.4c56 92.8 84.8 193.6 84.8 305.6v323.2c-80-12.8-152-43.2-217.6-91.2-64-48-115.2-107.2-152-179.2s-56-150.4-56-233.6c0-124.8 40-235.2 120-329.6 91.2 43.2 164.8 112 220.8 204.8zM598.4 144c-43.2 54.4-72 115.2-88 179.2-14.4-64-44.8-123.2-88-179.2-43.2-54.4-96-102.4-156.8-140.8 76.8-41.6 156.8-62.4 244.8-62.4s169.6 20.8 244.8 62.4c-60.8 38.4-113.6 86.4-156.8 140.8z" />
<glyph unicode="&#xe63f;" d="M137.6 212.8c-75.2 0-137.6-60.8-137.6-137.6 0-75.2 62.4-137.6 137.6-137.6 76.8 0 137.6 60.8 137.6 137.6 0 75.2-62.4 137.6-137.6 137.6zM11.2 614.4c-3.2 0-4.8 0-8 0v-190.4c3.2 0 4.8 0 8 0 262.4 0 476.8-212.8 476.8-475.2 0-4.8 0-8 0-11.2h190.4c0 4.8 0 8 0 11.2 0 368-299.2 665.6-667.2 665.6zM11.2 958.4c-3.2 0-4.8 0-8 0v-190.4c3.2 0 4.8 0 8 0 452.8 0 820.8-368 820.8-819.2 0-4.8 0-8 0-11.2h192c0 4.8 0 8 0 11.2 0 556.8-454.4 1009.6-1012.8 1009.6z" />
<glyph unicode="&#xe640;" d="M480 896c-24 0-48-1.6-70.4-4.8 0 0 0 1.6-1.6 1.6 12.8 9.6 19.2 24 16 36.8-3.2 19.2-20.8 30.4-46.4 30.4-4.8 0-11.2 0-16-1.6-30.4-6.4-49.6-28.8-44.8-51.2 3.2-12.8 14.4-22.4 30.4-27.2 0-1.6 0-1.6 0-3.2-200-57.6-347.2-241.6-347.2-460.8 0-265.6 214.4-480 480-480s480 214.4 480 480-214.4 480-480 480zM332.8 910.4c-3.2 12.8 12.8 27.2 33.6 32 3.2 1.6 8 1.6 11.2 1.6 16 0 28.8-6.4 30.4-16 1.6-8-3.2-16-11.2-22.4-6.4 4.8-16 6.4-25.6 4.8s-16-8-20.8-14.4c-8 1.6-16 8-17.6 14.4zM737.6 158.4c-43.2-43.2-97.6-75.2-155.2-92.8l-41.6 68.8-11.2-80c-16-1.6-32-3.2-49.6-3.2-97.6 0-188.8 38.4-257.6 107.2-43.2 43.2-75.2 97.6-92.8 155.2l68.8 41.6-80 11.2c-1.6 16-3.2 32-3.2 49.6 0 97.6 38.4 188.8 107.2 257.6 43.2 43.2 97.6 75.2 155.2 92.8l41.6-68.8 11.2 80c16 1.6 32 3.2 49.6 3.2 97.6 0 188.8-38.4 257.6-107.2 43.2-43.2 75.2-97.6 92.8-155.2l-68.8-43.2 80-11.2c1.6-16 3.2-32 3.2-49.6 0-96-38.4-187.2-107.2-256zM729.6 665.6l-196.8-150.4c-14.4 8-30.4 12.8-48 12.8l-51.2 107.2-3.2-118.4c-12.8-6.4-25.6-16-35.2-27.2l-62.4 22.4 46.4-48c-6.4-12.8-9.6-28.8-11.2-43.2l-107.2-51.2 118.4-3.2c0 0 0-1.6 1.6-1.6l-150.4-196.8 196.8 150.4c14.4-8 30.4-12.8 48-12.8l51.2-107.2 3.2 118.4c12.8 6.4 25.6 16 35.2 27.2l62.4-22.4-46.4 48c6.4 12.8 9.6 28.8 11.2 43.2l107.2 51.2-118.4 3.2c0 0 0 1.6-1.6 1.6l150.4 196.8zM480 515.2v0zM460.8 510.4c6.4 1.6 12.8 1.6 19.2 1.6 4.8 0 8 0 12.8 0v0 0c8-1.6 17.6-3.2 25.6-6.4l-72-54.4-54.4-72c-1.6 4.8-4.8 11.2-4.8 17.6-12.8 51.2 20.8 102.4 73.6 113.6zM529.6 334.4v0 0c-9.6-4.8-19.2-9.6-30.4-12.8-6.4-1.6-12.8-1.6-19.2-1.6-4.8 0-8 0-12.8 0v0 0c-8 1.6-17.6 3.2-25.6 6.4l72 54.4 54.4 72c1.6-4.8 4.8-11.2 4.8-17.6 9.6-40-9.6-80-43.2-100.8z" horiz-adv-x="960" />
<glyph unicode="&#xe641;" d="M459.2 499.2l380.8 278.4-276.8-382.4-104 104zM563.2 396.8l-379.2-276.8 276.8 379.2 102.4-102.4zM512 891.2c0 0 0 0 0 0s0 0 0 0 0 0 0 0 0 0 0 0 0 0 0 0 0 0 0 0 0 0 0 0 0 0 0 0c-1.6 0-1.6 0 0 0-1.6 0-1.6 0 0 0-1.6 0-1.6 0 0 0-1.6 0-1.6 0 0 0-1.6 0-1.6 0 0 0-1.6 0-1.6 0 0 0-1.6 0-1.6 0 0 0-1.6 0-1.6 0 0 0-1.6 0-1.6 0-1.6 0s0 0 0 0 0 0 0 0 0 0 0 0 0 0 0 0 0 0 0 0 0 0 0 0 0 0 0 0 0 0 0 0 0 0 0 0 0 0 0 0 0 0 0 0 0 0 0 0v0c0 0 0 0 0 0v0c0 0 0 0 0 0s0 0 0 0 0 0 0 0v0c-3.2 0-4.8 0-8 0l1.6-46.4c3.2 0 6.4 0 9.6 0v46.4h-1.6zM435.2 884.8c-3.2 0-8-1.6-11.2-1.6l9.6-46.4c3.2 0 6.4 1.6 9.6 1.6l-8 46.4zM360 865.6c-1.6 0-3.2-1.6-4.8-1.6v0c0 0 0 0 0 0s0 0 0 0 0 0 0 0 0 0 0 0 0 0 0 0 0 0 0 0 0 0 0 0 0 0 0 0 0 0 0 0 0 0 0 0 0 0 0 0c-1.6 0-3.2-1.6-4.8-1.6l17.6-44.8c3.2 1.6 6.4 1.6 9.6 3.2l-17.6 44.8zM291.2 833.6c-1.6-1.6-3.2-3.2-4.8-3.2 0 0 0 0 0 0s0 0 0 0 0 0 0 0 0 0 0 0 0 0 0 0 0 0 0 0 0 0 0 0 0 0 0 0 0 0 0 0 0 0 0 0 0 0 0 0 0 0 0 0 0 0 0 0 0 0 0 0 0 0 0 0v0c-1.6 0-3.2-1.6-3.2-1.6l24-40c3.2 1.6 6.4 3.2 8 4.8l-24 40zM227.2 788.8c0 0-1.6-1.6-1.6-1.6v0c0 0 0 0 0 0s0 0 0 0 0 0 0 0 0 0 0 0 0 0 0 0 0 0 0 0 0 0 0 0 0 0 0 0 0 0 0 0 0 0 0 0 0 0 0 0 0 0 0 0 0 0 0 0 0 0 0 0 0 0 0 0 0 0 0 0 0 0 0 0 0 0 0 0 0 0 0 0 0 0 0 0 0 0 0 0-1.6 0-1.6-1.6v0c0 0 0 0 0 0v0c0 0 0 0 0 0s0 0 0 0 0 0 0 0 0 0 0 0 0 0 0 0 0 0 0 0 0 0 0 0 0 0 0 0 0 0 0 0 0 0 0 0 0 0 0 0 0 0 0 0 0 0 0 0 0 0 0 0 0 0 0 0 0 0 0 0 0 0 0 0 0 0 0 0 0 0 0 0v0c0 0 0 0 0 0s0 0 0 0-1.6-1.6-1.6-1.6l30.4-35.2c3.2 1.6 4.8 4.8 8 6.4l-33.6 33.6zM172.8 734.4c-1.6-1.6-3.2-4.8-4.8-6.4 0 0 0 0 0 0s0 0 0 0 0 0 0 0 0 0 0 0 0 0 0 0 0 0 0 0 0 0 0 0v0c0 0 0-1.6-1.6-1.6l36.8-28.8c1.6 3.2 4.8 4.8 6.4 8l-36.8 28.8zM128 672c0-1.6 0-1.6 0 0v0c0-1.6 0-1.6 0-1.6s0 0 0 0 0 0 0 0 0 0 0 0 0 0 0 0 0 0 0 0 0 0 0 0 0 0 0 0 0 0 0 0 0 0 0 0 0 0 0 0 0 0 0 0 0 0 0 0 0 0 0 0 0 0 0 0 0 0 0 0 0 0 0 0 0 0 0 0 0 0 0 0 0 0 0 0 0 0 0 0 0 0 0 0v0c0 0 0 0 0 0s0 0 0 0 0 0 0 0 0 0 0 0 0 0 0 0 0 0 0 0 0 0 0 0 0 0 0 0 0 0 0 0 0 0 0 0 0 0 0 0v0c0 0 0 0 0 0v0c0 0 0 0 0 0s0 0 0 0 0 0 0 0 0 0 0 0 0 0 0 0 0 0 0 0 0 0 0 0 0 0 0 0v0c0 0 0 0 0 0v0c0 0 0 0 0 0v0c-1.6-1.6-1.6-3.2-1.6-4.8l41.6-22.4c1.6 3.2 3.2 6.4 4.8 8l-44.8 20.8zM96 601.6c0 0 0-1.6 0-1.6s0 0 0 0 0 0 0 0 0 0 0 0 0 0 0 0 0 0 0 0 0 0 0 0 0 0 0 0 0 0 0 0 0 0 0 0 0 0 0 0 0 0 0 0v0c0 0 0 0 0 0v0c-1.6-3.2-1.6-4.8-3.2-8l43.2-16c1.6 3.2 1.6 6.4 3.2 9.6l-43.2 16zM75.2 528c0-1.6 0-1.6 0-3.2v0c0 0 0 0 0 0s0 0 0 0 0 0 0 0 0 0 0 0 0 0 0 0 0 0 0 0 0 0 0 0 0 0 0 0 0 0 0 0 0 0 0 0 0 0 0 0 0 0 0 0 0 0 0 0 0 0 0 0 0 0 0 0 0 0 0 0 0 0 0 0 0 0 0 0 0 0 0 0 0 0 0 0 0 0 0 0 0 0 0 0 0 0 0 0 0 0 0 0 0 0 0 0 0 0 0 0 0 0 0 0 0 0 0 0 0 0 0 0 0 0 0 0 0 0 0 0 0 0 0 0v0c0 0 0 0 0 0s0 0 0 0 0 0 0 0 0 0 0 0 0 0 0 0 0 0 0 0 0 0 0 0 0 0 0 0 0 0 0 0 0 0 0 0v0c0 0 0 0 0 0v0c0-1.6 0-3.2 0-3.2l46.4-6.4c0 3.2 1.6 6.4 1.6 9.6l-48 3.2zM68.8 451.2c0 0 0-1.6 0-1.6v0c0 0 0 0 0 0v0c0 0 0 0 0 0v0c0 0 0 0 0 0s0 0 0 0 0 0 0 0 0 0 0 0 0 0 0 0 0 0 0 0 0 0 0 0 0 0 0 0 0 0 0 0 0 0 0 0 0 0 0 0 0 0 0 0 0 0 0 0 0 0 0 0v0c0 0 0 0 0 0v0c0-1.6 0-4.8 0-6.4l46.4 1.6c0 3.2 0 4.8 0 8 0 0 0 1.6 0 1.6l-46.4-3.2zM120 380.8l-46.4-8c0-1.6 0-4.8 1.6-6.4v0c0 0 0 0 0 0v0c0 0 0 0 0 0s0 0 0 0 0 0 0 0 0 0 0 0 0 0 0 0 0 0 0 0 0 0 0 0 0 0 0 0 0 0 0 0 0 0 0 0 0 0 0 0v0c0 0 0 0 0 0s0 0 0 0 0 0 0 0 0 0 0 0 0 0 0 0 0 0 0 0 0 0 0 0 0 0 0 0 0 0 0 0 0 0 0 0 0 0 0 0 0 0 0 0 0 0 0 0 0 0 0 0 0 0 0 0 0 0 0 0 0 0 0 0 0 0 0 0 0 0 0 0 0 0 0 0 0 0 0 0 0 0 0 0 0 0 0 0 0 0 0 0 0 0 0 0 0 0 0 0v0c0 0 0 0 0 0s0 0 0 0 0 0 0 0 0 0 0 0 0 0 0 0v0c0 0 0 0 0 0s0 0 0 0 0 0 0 0v0c0 0 0 0 0 0v0c0 0 0 0 0 0v0c0 0 0 0 0 0v0c0 0 0 0 0 0l46.4 9.6c0-1.6 0 1.6-1.6 4.8v0zM137.6 315.2l-44.8-16c1.6-3.2 3.2-4.8 3.2-8v0c0 0 0 0 0 0s0 0 0 0 0 0 0 0 0 0 0 0 0 0 0 0 0 0 0 0 0 0 0 0 0 0 0 0 0 0 0 0 0 0 0 0 0 0 0 0 0 0 0 0 0 0 0 0 0 0 0 0 0 0 0 0 0 0 0 0 0 0 0 0 0 0 0 0 0 0 0 0 0 0 0 0 0 0 0 0 0 0 0 0v0c0 0 0 0 0-1.6l43.2 16c0 3.2 0 6.4-1.6 9.6v0zM166.4 252.8l-40-22.4c0 0 0 0 0 0s0 0 0 0 0 0 0 0 0 0 0 0 0 0 0 0 0 0 0 0c1.6-3.2 3.2-6.4 4.8-9.6l40 24c-1.6 1.6-3.2 4.8-4.8 8v0zM204.8 195.2l-36.8-30.4c1.6-1.6 1.6-1.6 3.2-3.2 0 0 0 0 0 0s0 0 0 0c1.6-1.6 3.2-3.2 4.8-4.8l35.2 30.4c-1.6 3.2-3.2 4.8-6.4 8v0zM254.4 145.6l-30.4-35.2c1.6-1.6 1.6-1.6 3.2-3.2 0 0 0 0 0 0s0 0 0 0 0 0 0 0 0 0 0 0 0 0 0 0 0 0 0 0 0 0 0 0 0 0 0 0c1.6-1.6 3.2-3.2 4.8-3.2l28.8 36.8c-1.6 1.6-4.8 3.2-6.4 4.8v0zM310.4 105.6l-24-40c1.6-1.6 4.8-3.2 6.4-3.2v0c0 0 0 0 0 0s0 0 0 0 0 0 0 0 0 0 0 0 0 0 0 0 0 0 0 0 0 0 0 0 0 0 0 0 0 0 0 0 0 0 0 0 0 0 0 0 0 0 0 0 0 0 0 0 0 0 0 0 0 0 0 0 0 0 0 0 0 0 0 0 0 0 0 0 0 0 0 0 0 0 0 0 0 0 0 0 0 0 0 0v0c0 0 1.6 0 1.6-1.6l22.4 41.6c-1.6 0-3.2 1.6-6.4 3.2v0zM372.8 76.8l-16-43.2c1.6 0 3.2-1.6 3.2-1.6s0 0 0 0 0 0 0 0 0 0 0 0 0 0 0 0 0 0 0 0 0 0 0 0 0 0 0 0 0 0 0 0 0 0 0 0 0 0 0 0 0 0 0 0 0 0 0 0c1.6 0 3.2-1.6 6.4-1.6l16 44.8c-3.2-1.6-6.4 0-9.6 1.6v0zM438.4 57.6l-8-46.4c3.2 0 8-1.6 11.2-1.6l8 46.4c-4.8 0-8 1.6-11.2 1.6v0zM516.8 51.2c-1.6 0-3.2 0-4.8 0s-3.2 0-4.8 0v-46.4c0 0 1.6 0 1.6 0v0c0 0 0 0 0 0s0 0 0 0 0 0 0 0 0 0 0 0 0 0 0 0 0 0 0 0 0 0 0 0 0 0 0 0 0 0 0 0 0 0 0 0 0 0 0 0 0 0 0 0 0 0 0 0 0 0 0 0 0 0 0 0 0 0 0 0 0 0 0 0 0 0 0 0 0 0 0 0 0 0 0 0 0 0 0 0 0 0 0 0 0 0 0 0 0 0 0 0 0 0 0 0 0 0 0 0 0 0 0 0 0 0 0 0 0 0 0 0 0 0 0 0 0 0 0 0v0c0 0 0 0 0 0s0 0 0 0 0 0 0 0 0 0 0 0 0 0 0 0 0 0 0 0 0 0 0 0 0 0 0 0 0 0 0 0 0 0 0 0 0 0 0 0 0 0 0 0 0 0 0 0 0 0 0 0 0 0 0 0 0 0 0 0 0 0 0 0v0c0 0 0 0 0 0v0c1.6 0 3.2 0 4.8 0l3.2 46.4zM585.6 57.6c-3.2 0-6.4-1.6-9.6-1.6l8-46.4c0 0 1.6 0 1.6 0v0c0 0 0 0 0 0s0 0 0 0 0 0 0 0 0 0 0 0 0 0 0 0 0 0 0 0 0 0 0 0 0 0 0 0 0 0 0 0 0 0 0 0 0 0 0 0 0 0 0 0 0 0 0 0 0 0 0 0 0 0 0 0 0 0 0 0 0 0 0 0 0 0 0 0 0 0 0 0 0 0 0 0 0 0 0 0 0 0 0 0 0 0 0 0 0 0 0 0 0 0 0 0 0 0 0 0 0 0 0 0 0 0 0 0 0 0 0 0 0 0 0 0 0 0 0 0 0 0 0 0 0 0 0 0 0 0 0 0 0 0 0 0v0c1.6 0 3.2 0 6.4 1.6l-6.4 46.4zM652.8 76.8c-3.2-1.6-6.4-1.6-9.6-3.2l16-44.8c1.6 0 1.6 0 3.2 1.6v0c0 0 0 0 0 0s0 0 0 0 0 0 0 0 0 0 0 0 0 0 0 0 0 0 0 0 0 0 0 0 0 0 0 0 0 0 0 0 0 0 0 0 0 0 0 0 0 0 0 0 0 0 0 0 0 0 0 0 0 0 0 0 0 0 0 0 0 0 0 0 0 0 0 0 0 0 0 0 0 0 0 0v0c0 0 0 0 0 0v0c0 0 0 0 0 0v0c0 0 0 0 0 0v0c1.6 0 3.2 1.6 4.8 1.6v0c0 0 0 0 0 0v0c0 0 0 0 0 0s0 0 0 0 0 0 0 0 0 0 0 0 0 0 0 0l-14.4 44.8zM715.2 105.6c-3.2-1.6-6.4-3.2-8-4.8l22.4-40c3.2 1.6 6.4 3.2 8 4.8 0 0 0 0 1.6 0l-24 40zM771.2 147.2c-3.2-1.6-4.8-4.8-8-6.4l28.8-36.8c0 0 1.6 1.6 1.6 1.6v0c0 0 0 0 0 0s0 0 0 0 0 0 0 0 0 0 0 0 0 0 0 0 0 0 0 0 0 0 0 0 0 0 0 0 0 0 0 0 0 0 0 0 0 0 0 0 0 0 0 0 0 0 0 0 0 0 0 0 0 0 0 0c1.6 1.6 3.2 1.6 3.2 3.2 0 0 0 0 0 0s0 0 0 0 0 0 0 0 0 0 0 0 0 0 0 0 0 0 0 0 0 0 0 0 0 0 0 0 1.6 0 1.6 1.6l-27.2 36.8zM819.2 195.2c-1.6-3.2-4.8-4.8-6.4-8l35.2-30.4c0 0 1.6 1.6 1.6 1.6s0 0 0 0 0 0 0 0 0 0 0 0 0 0 0 0 0 0 0 0 0 0 0 0 0 0 0 0 0 0 0 0c1.6 1.6 3.2 4.8 4.8 6.4l-35.2 30.4zM857.6 252.8c-1.6-3.2-3.2-6.4-4.8-8l40-24c1.6 1.6 3.2 4.8 3.2 6.4 0 0 0 0 0 0s0 0 0 0c0 1.6 1.6 1.6 1.6 3.2l-40 22.4zM886.4 315.2c-1.6-3.2-1.6-6.4-3.2-9.6l43.2-16c1.6 3.2 3.2 6.4 3.2 11.2l-43.2 14.4zM904 382.4c0-3.2-1.6-6.4-1.6-9.6l46.4-9.6c0 3.2 1.6 8 1.6 11.2l-46.4 8zM955.2 451.2h-46.4c0-1.6 0-1.6 0-3.2s0-4.8 0-6.4h46.4c0 0 0 1.6 0 1.6v0c0 0 0 0 0 0s0 0 0 0 0 0 0 0 0 0 0 0 0 0 0 0 0 0 0 0 0 0 0 0 0 0 0 0 0 0 0 0 0 0 0 0 0 0 0 0 0 0 0 0 0 0 0 0 0 0 0 0v0c0 0 0 0 0 0s0 0 0 0 0 0 0 0 0 0 0 0 0 0 0 0 0 0 0 0 0 0 0 0 0 0 0 0 0 0 0 0 0 0 0 0 0 0 0 0 0 0 0 0 0 0 0 0 0 0 0 0 0 0 0 0 0 0 0 0 0 0 0 0 0 0 0 0 0 0 0 0 0 0 0 0 0 0 0 0 0 0 0 0 0 0 0 0 0 0 0 0 0 0 0 0 0 0 0 0 0 0 0 0 0 0 0 0v0c0 0 0 0 0 0s0 0 0 0 0 0 0 0 0 0 0 0 0 0 0 0 0 0 0 0 0 0 0 0 0 0 0 0 0 0 0 0 0 0 0 0 0 0 0 0 0 0 0 0 0 0 0 0 0 0 0 0 0 0 0 0v0c0 6.4 0 8 0 8v0zM948.8 528l-46.4-8c0-3.2 1.6-6.4 1.6-9.6l46.4 8c0 1.6 0 3.2-1.6 6.4v0c0 0 0 0 0 0s0 0 0 0 0 0 0 0 0 0 0 0 0 0 0 0 0 0 0 0 0 0 0 0 0 0 0 0 0 0 0 0 0 0 0 0 0 0 0 0 0 1.6 0 3.2v0zM928 603.2l-43.2-16c1.6-3.2 1.6-6.4 3.2-9.6l44.8 14.4c0 0 0 0 0 1.6 0 0 0 0 0 0s0 0 0 0v0c0 0 0 0 0 0s0 0 0 0 0 0 0 0 0 0 0 0 0 0 0 0 0 0 0 0 0 0 0 0 0 0 0 0 0 0 0 0 0 0 0 0 0 0 0 0 0 0 0 0 0 0 0 0 0 0 0 0 0 0 0 0 0 0 0 0 0 0 0 0 0 0 0 0 0 0 0 0 0 0 0 0 0 0 0 0 0 0 0 0 0 0 0 0 0 0 0 0 0 0 0 0 0 0 0 0 0 0 0 0 0 0 0 0 0 0 0 0 0 0 0 0 0 0 0 0 0 0 0 0 0 0 0 0 0 0 0 0 0 0 0 0 0 0 0 0 0 0 0 0 0 0 0 0 0 0 0 0 0 0 0 0 0 0 0 0 0 0 0 0 0 0 0 0v0c-3.2 4.8-3.2 8-4.8 9.6v0zM896 672l-40-24c1.6-3.2 3.2-6.4 4.8-8l41.6 22.4c-3.2 3.2-4.8 6.4-6.4 9.6 0 0 0 0 0 0s0 0 0 0 0 0 0 0 0 0 0 0 0 0 0 0 0 0 0 0 0 0 0 0v0zM851.2 734.4l-35.2-30.4c1.6-3.2 4.8-4.8 6.4-8l36.8 28.8c0 0-1.6 1.6-1.6 1.6s0 0 0 0 0 0 0 0c-3.2 4.8-4.8 6.4-6.4 8 0 0 0 0 0 0s0 0 0 0 0 0 0 0 0 0 0 0 0 0 0 0v0zM795.2 788.8l-30.4-35.2c3.2-1.6 4.8-4.8 8-6.4l30.4 35.2c-1.6 1.6-4.8 4.8-8 6.4v0zM732.8 833.6l-24-40c3.2-1.6 6.4-3.2 8-4.8l24 40c0 0-1.6 0-1.6 1.6v0c0 0 0 0 0 0v0c0 0 0 0 0 0s0 0 0 0 0 0 0 0 0 0 0 0 0 0 0 0 0 0 0 0 0 0 0 0 0 0 0 0 0 0 0 0 0 0 0 0 0 0 0 0 0 0 0 0v0c0 0-1.6 0-1.6 1.6 0 0 0 0 0 0s0 0 0 0 0 0 0 0 0 0 0 0 0 0 0 0 0 0 0 0 0 0 0 0 0 0 0 0 0 0 0 0 0 0 0 0 0 0 0 0 0 0 0 0 0 0 0 0 0 0 0 0 0 0 0 0 0 0 0 0 0 0 0 0 0 0 0 0 0 0 0 0 0 0 0 0 0 0 0 0 0 0 0 0 0 0 0 0v0c-3.2 0-3.2 0-4.8 1.6v0zM662.4 865.6l-16-43.2c3.2-1.6 6.4-1.6 9.6-3.2l17.6 43.2c-1.6 0-4.8 1.6-6.4 1.6 0 0 0 0 0 0s0 0 0 0 0 0 0 0 0 0 0 0c-1.6 1.6-3.2 1.6-4.8 1.6v0zM587.2 884.8l-8-46.4c3.2 0 6.4-1.6 9.6-1.6l9.6 46.4c-1.6 0-3.2 0-3.2 0s0 0 0 0 0 0 0 0 0 0 0 0 0 0 0 0 0 0 0 0 0 0 0 0 0 0 0 0 0 0 0 0 0 0 0 0 0 0 0 0 0 0 0 0v0c-3.2 1.6-4.8 1.6-8 1.6v0zM475.2 891.2c-1.6 0-1.6 0 0 0-1.6 0-1.6 0 0 0-1.6 0-1.6 0 0 0-1.6 0-1.6 0 0 0-1.6-1.6-1.6-1.6 0 0-1.6-1.6-1.6-1.6 0 0-1.6-1.6-1.6-1.6 0 0-1.6-1.6-1.6-1.6 0 0-1.6-1.6-1.6-1.6 0 0-1.6-1.6-1.6-1.6 0 0-1.6-1.6-1.6-1.6 0 0-1.6-1.6-1.6-1.6 0 0-1.6-1.6-1.6-1.6 0 0-1.6-1.6-1.6-1.6 0 0-1.6-1.6-1.6-1.6 0 0-1.6-1.6-1.6-1.6 0 0-1.6 0-1.6 0-1.6 0s0 0 0 0 0 0 0 0 0 0 0 0 0 0 0 0 0 0 0 0 0 0 0 0 0 0 0 0 0 0 0 0 0 0 0 0 0 0 0 0 0 0 0 0 0 0 0 0 0 0 0 0 0 0 0 0 0 0 0 0 0 0 0 0 0 0 0 0 0 0 0 0 0 0 0 0 0 0 0 0 0 0 0 0 0 0 0 0 0 0 0 0 0 0 0 0 0 0 0 0 0 0 0 0 0 0 0 0 0 0 0 0 0 0 0 0 0 0 0 0 0 0 0 0 0 0 0 0 0 0 0 0 0 0 0 0 0 0 0 0 0 0 0 0 0 0 0 0 0 0 0 0 0 0 0 0 0 0 0 0 0 0 0 0 0 0 0 0 0 0 0 0 0 0 0 0 0 0 0 0 0 0 0 0v0c0 0 0 0 0 0v0c-1.6 0-3.2 0-4.8 0l9.6-83.2c3.2 0 6.4 0 9.6 1.6l-12.8 81.6zM398.4 876.8c-1.6 0-3.2-1.6-4.8-1.6 0 0 0 0 0 0s0 0 0 0v0c0 0 0 0 0 0-1.6 0-3.2-1.6-4.8-1.6l22.4-80c3.2 1.6 6.4 1.6 8 1.6l-20.8 81.6zM326.4 851.2c-1.6 0-3.2-1.6-4.8-1.6v0c0 0 0 0 0 0s0 0 0 0 0 0 0 0 0 0 0 0 0 0 0 0 0 0 0 0 0 0 0 0 0 0 0 0 0 0 0 0c-1.6-1.6-4.8-1.6-6.4-3.2l36.8-75.2c3.2 1.6 4.8 3.2 8 3.2l-33.6 76.8zM259.2 812.8c-1.6 0-1.6-1.6-3.2-1.6 0 0 0 0 0 0s0 0 0 0 0 0 0 0 0 0 0 0 0 0 0 0 0 0 0 0 0 0 0 0v0c0 0 0 0 0 0s0 0 0 0c-1.6-1.6-3.2-1.6-4.8-3.2l49.6-67.2c3.2 1.6 4.8 3.2 8 4.8l-49.6 67.2zM200 764.8c-1.6-1.6-3.2-3.2-3.2-3.2v0c0 0 0 0 0 0s0 0 0 0 0 0 0 0 0 0 0 0v0c0 0 0 0 0 0s0 0 0 0 0 0 0 0v0c0 0 0 0 0 0s0 0 0 0 0 0 0 0v0c0 0 0 0 0 0v0c0 0 0 0 0 0s0 0 0 0 0 0 0 0 0 0 0 0-1.6-1.6-1.6-1.6l59.2-57.6c1.6 1.6 4.8 4.8 6.4 6.4l-60.8 56zM148.8 705.6c-1.6-1.6-3.2-3.2-4.8-6.4 0 0 0 0 0 0s0 0 0 0 0 0 0 0 0 0 0 0 0 0 0 0 0 0 0 0 0 0 0 0 0 0 0 0c0-1.6-1.6-1.6-1.6-3.2l68.8-46.4c1.6 3.2 3.2 4.8 4.8 8l-67.2 48zM110.4 638.4c0 0 0-1.6-1.6-1.6v0c0 0 0 0 0 0v0c0 0 0 0 0 0s0 0 0 0 0 0 0 0 0 0 0 0 0 0 0 0 0 0 0 0 0 0 0 0 0 0 0 0 0 0 0 0 0 0 0 0 0 0 0 0 0 0 0 0 0 0 0 0 0 0 0 0 0 0 0 0 0 0 0 0 0 0 0 0 0 0 0 0 0 0 0 0v0c0 0 0 0 0 0v0c-1.6-1.6-1.6-4.8-3.2-6.4l76.8-33.6c1.6 3.2 3.2 4.8 3.2 8l-75.2 33.6zM83.2 566.4c-1.6-3.2-1.6-6.4-3.2-9.6l80-20.8c0 3.2 1.6 6.4 1.6 8l-78.4 22.4zM68.8 491.2c0-1.6 0-3.2 0-4.8v0c0 0 0 0 0 0v0c0 0 0 0 0 0s0 0 0 0 0 0 0 0 0 0 0 0 0 0 0 0 0 0 0 0 0 0 0 0 0 0 0 0 0 0 0 0 0 0 0 0 0 0 0 0 0 0 0 0 0 0 0 0c0-1.6 0-3.2 0-4.8l83.2-6.4c0 3.2 0 6.4 0 9.6l-83.2 6.4zM68.8 414.4c0-1.6 0-1.6 0 0 0-1.6 0-1.6 0-1.6s0 0 0 0 0 0 0 0 0 0 0 0 0 0 0 0 0 0 0 0 0 0 0 0 0 0 0 0 0 0 0 0 0 0 0 0 0 0 0 0 0 0 0 0 0 0 0 0 0 0 0 0v0c0 0 0 0 0 0s0 0 0 0 0 0 0 0v0c0 0 0 0 0 0s0 0 0 0 0 0 0 0 0 0 0 0 0 0 0 0 0 0 0 0 0 0 0 0 0 0 0 0 0 0 0 0 0 0 0 0 0 0 0 0v0c0 0 0 0 0 0v0c0 0 0 0 0 0v0c0 0 0 0 0 0s0 0 0 0 0 0 0 0 0 0 0 0 0 0 0 0 0 0 0 0 0 0 0 0v0c0-1.6 0-1.6 0-3.2l83.2 8c0 1.6 0 4.8 0 6.4 0 0 0 1.6 0 1.6l-83.2-11.2zM161.6 358.4l-80-20.8c0 0 0 0 0 0s0 0 0 0 0 0 0 0c0-1.6 1.6-3.2 1.6-4.8 0 0 0 0 0 0s0 0 0 0 0 0 0 0 0 0 0 0 0 0 0 0 0 0 0 0 0 0 0 0v0c0-1.6 0-3.2 1.6-4.8l80 22.4c-1.6 1.6-3.2 4.8-3.2 8v0zM182.4 299.2l-75.2-33.6c0 0 0-1.6 0-1.6s0 0 0 0 0 0 0 0 0 0 0 0 0 0 0 0c1.6-1.6 1.6-3.2 3.2-4.8 0 0 0 0 0 0s0 0 0 0 0 0 0 0 0 0 0 0 0 0 0 0 0 0 0 0 0-1.6 1.6-1.6l75.2 36.8c-3.2 0-3.2 1.6-4.8 4.8v0zM212.8 244.8l-68.8-46.4c0-1.6 1.6-1.6 1.6-3.2 0 0 0 0 0 0s0 0 0 0 0 0 0 0 0 0 0 0 0 0 0 0 0 0 0 0 0 0 0 0 0 0 0 0 0 0 0 0 0 0 0 0 0 0 0 0 0 0 0 0 0 0 0 0v0c0 0 0-1.6 1.6-1.6v0c0 0 0 0 0 0s0 0 0 0 0 0 0 0v0c0 0 0 0 0 0v0c0 0 0 0 0 0v0c0 0 0 0 0 0s0 0 0 0 0 0 0 0 0 0 0 0 0 0 0 0 0 0 0 0 0 0 0 0 0 0 0 0 0 0 0 0 1.6-1.6 1.6-1.6l67.2 48c0 0-1.6 3.2-3.2 4.8v0zM252.8 196.8l-59.2-57.6c0 0 0 0 0 0s0 0 0 0 0 0 0 0 0 0 0 0 0 0 0 0 0 0 0 0 0 0 0 0 0 0 0 0 0 0 0 0 0 0 0 0 0 0 0 0 0 0 0 0 0 0 0 0 0 0 0 0 0 0 0 0 0 0 0 0 0 0 0 0 0 0 0 0 0 0 0 0 0 0 0 0 0 0 0 0 0 0 0 0 0 0 0 0 0 0 0 0 0 0 0 0 0 0 0 0 0 0 0 0 0 0 0 0 0 0 0 0v0c0 0 0 0 0 0v0c1.6-1.6 4.8-4.8 6.4-6.4l57.6 59.2c0 0-3.2 1.6-4.8 4.8v0zM300.8 155.2l-48-67.2c3.2-1.6 6.4-4.8 9.6-6.4l46.4 68.8c-3.2 1.6-6.4 3.2-8 4.8v0zM353.6 123.2l-36.8-75.2c3.2-1.6 6.4-3.2 9.6-4.8l35.2 75.2c-1.6 1.6-4.8 3.2-8 4.8v0zM412.8 100.8l-22.4-80c1.6 0 1.6 0 3.2-1.6 0 0 0 0 0 0s0 0 0 0 0 0 0 0 0 0 0 0 0 0 0 0 0 0 0 0 0 0 0 0 0 0 0 0 0 0 0 0 0 0 0 0c1.6 0 4.8-1.6 6.4-1.6 0 0 0 0 0 0s0 0 0 0v0c0 0 0 0 0 0s0 0 0 0v0c0 0 0 0 0 0l20.8 80c-3.2 1.6-4.8 3.2-8 3.2v0zM473.6 89.6l-8-83.2c1.6 0 4.8 0 6.4 0v0c0 0 0 0 0 0 1.6 0 3.2 0 3.2 0l6.4 83.2c-1.6-1.6-4.8 0-8 0v0zM545.6 89.6c-1.6 0-3.2 0-4.8 0s-3.2 0-4.8 0l6.4-83.2c1.6 0 3.2 0 4.8 0 0 0 0 0 0 0s0 0 0 0 0 0 0 0 0 0 0 0 0 0 0 0 0 0 0 0 0 0 0 0 0 0 0 0 0 0 0 0 0 0 0 0 0 0 0 0v0c0 0 0 0 0 0s0 0 0 0 0 0 0 0 0 0 0 0 0 0 0 0 0 0 0 0 0 0 0 0 0 0 0 0 0 0 0 0 0 0 0 0 0 0 0 0 0 0 0 0 0 0 0 0 0 0 0 0 0 0 0 0v0c0 0 0 0 0 0v0c1.6 0 3.2 0 4.8 0l-6.4 83.2zM608 100.8c-3.2 0-6.4-1.6-8-1.6l20.8-81.6c3.2 1.6 6.4 1.6 11.2 3.2 0 0 0 0 0 0s0 0 0 0 0 0 0 0 0 0 0 0l-24 80zM665.6 121.6c-3.2-1.6-4.8-3.2-8-3.2l33.6-76.8c1.6 0 1.6 1.6 3.2 1.6 0 0 0 0 0 0s0 0 0 0 0 0 0 0 0 0 0 0 0 0 0 0 0 0 0 0c1.6 1.6 4.8 1.6 6.4 3.2l-35.2 75.2zM720 153.6c-3.2-1.6-4.8-3.2-8-4.8l46.4-68.8c0 0 0 0 0 0s0 0 0 0 0 0 0 0 0 0 0 0 0 0 0 0 0 0 0 0 0 0 0 0 0 0 0 0 0 0 0 0 0 0 0 0 0 0 0 0 0 0 0 0 0 0 0 0 0 0 0 0 0 0 0 0 0 0 0 0 0 0 0 0 0 0 0 0v0c0 0 0 0 0 0s0 0 0 0c3.2 1.6 4.8 3.2 8 4.8l-46.4 68.8zM768 195.2c-1.6-1.6-4.8-4.8-6.4-6.4l57.6-59.2c1.6 1.6 1.6 1.6 3.2 3.2 0 0 0 0 0 0s0 0 0 0c1.6 1.6 3.2 3.2 4.8 4.8l-59.2 57.6zM808 243.2c-1.6-3.2-3.2-4.8-4.8-8l67.2-49.6c0 0 0 0 0 0s0 0 0 0 0 0 0 0 0 0 0 0c1.6 3.2 3.2 4.8 4.8 8 0 0 0 0 0 0s0 0 0 0 0 0 0 0 0 0 0 0 0 0 0 0v0c0 0 0 0 0 1.6l-67.2 48zM838.4 297.6c-1.6-3.2-3.2-4.8-3.2-8l75.2-36.8c0 0 0 1.6 1.6 1.6v0c0 0 0 0 0 0v0c0 0 0 0 0 0s0 0 0 0 0 0 0 0 0 0 0 0 0 0 0 0c0 1.6 1.6 1.6 1.6 3.2v0c0 0 0 0 0 0s0 0 0 0 0 0 0 0 0 0 0 0 0 0 0 0c0 1.6 1.6 1.6 1.6 3.2l-76.8 36.8zM859.2 356.8c0-3.2-1.6-6.4-3.2-8l80-24c0 1.6 0 3.2 1.6 4.8v0c0 1.6 1.6 4.8 1.6 6.4l-80 20.8zM870.4 417.6c0-3.2 0-6.4-1.6-9.6l83.2-9.6c0 3.2 0 6.4 1.6 8 0 0 0 0 0 0s0 0 0 0 0 0 0 0 0 0 0 0 0 1.6 0 1.6l-83.2 9.6zM953.6 488l-83.2-8c0-1.6 0-1.6 0-3.2s0-4.8 0-6.4l83.2 4.8c0 1.6 0 3.2 0 4.8v0c0 0 0 0 0 0v0c0 0 0 0 0 0v0c0 0 0 0 0 0s0 0 0 0 0 0 0 0 0 0 0 0 0 0 0 0 0 0 0 0 0 0 0 0 0 0 0 0 0 0 0 0 0 0 0 0 0 0 0 0 0 0 0 0 0 0 0 0 0 0 0 0 0 0 0 0 0 0 0 0v0c0 0 0 0 0 0s0 0 0 0 0 0 0 0 0 0 0 0 0 0 0 0v0c0 0 0 0 0 0s0 0 0 0 0 0 0 0 0 0 0 0 0 0 0 0 0 0 0 0 0 0 0 0c0 6.4 0 6.4 0 8v0c0-1.6 0-1.6 0 0 0-1.6 0-1.6 0 0 0-1.6 0-1.6 0 0 0 0 0 0 0 0v0zM939.2 563.2l-80-22.4c0-3.2 1.6-6.4 1.6-8l81.6 19.2c0 0 0 0 0 0s0 0 0 0 0 0 0 0 0 0 0 0 0 0 0 0 0 0 0 0v0c0 1.6-1.6 4.8-1.6 6.4 0 0 0 0 0 0s0 0 0 0 0 0 0 0v0c0 3.2-1.6 4.8-1.6 4.8v0zM913.6 636.8l-75.2-35.2c1.6-3.2 3.2-4.8 3.2-8l76.8 33.6c0 1.6-1.6 3.2-1.6 4.8v0c0 0 0 0 0 0v0c0 0 0 0 0 0s0 0 0 0 0 0 0 0 0 0 0 0 0 0 0 0 0 0 0 0 0 0 0 0 0 0 0 0 0 0 0 0 0 0 0 0 0 0 0 0c-1.6 1.6-3.2 3.2-3.2 4.8v0zM875.2 702.4l-68.8-48c1.6-3.2 3.2-4.8 4.8-8l68.8 46.4c0 1.6-1.6 1.6-1.6 3.2 0 0 0 0 0 0s0 0 0 0 0 0 0 0 0 0 0 0 0 0 0 0 0 0 0 0 0 0 0 0v0c-1.6 3.2-3.2 4.8-3.2 6.4v0zM824 761.6l-59.2-59.2c1.6-1.6 4.8-4.8 6.4-6.4l60.8 57.6c-1.6 1.6-1.6 1.6-3.2 3.2 0 0 0 0 0 0s0 0 0 0 0 0 0 0 0 0 0 0 0 0 0 0 0 0 0 0 0 0 0 0 0 0 0 0 0 0 0 0 0 0 0 0c0 1.6-1.6 3.2-4.8 4.8v0c1.6 0 1.6 0 0 0 1.6 0 1.6 0 0 0v0zM766.4 811.2l-48-68.8c3.2-1.6 4.8-3.2 8-4.8l49.6 67.2c0 0 0 0 0 0s0 0 0 0 0 0 0 0 0 0 0 0 0 0 0 0 0 0 0 0 0 0 0 0 0 0 0 0 0 0 0 0 0 0 0 0 0 0 0 0 0 0 0 0 0 0 0 0 0 0 0 0 0 0 0 0 0 0 0 0 0 0 0 0-1.6 1.6-1.6 1.6v0c0 0 0 0 0 0v0c0 0 0 0 0 0s0 0 0 0 0 0 0 0 0 0 0 0 0 0 0 0v0c0 0 0 0 0 0v0c0 0 0 0 0 0s0 0 0 0 0 0 0 0 0 0 0 0 0 0 0 0 0 0 0 0 0 0 0 0 0 0 0 0 0 0 0 0 0 0 0 0 0 0 0 0 0 0 0 0 0 0 0 0 0 0 0 0 0 0 0 0 0 0 0 0 0 0 0 0 0 0 0 0 0 0 0 0 0 0 0 0 0 0 0 0 0 0 0 0 0 0 0 0 0 0 0 0 0 0 0 0 0 0 0 0 0 0 0 0 0 0 0 0 0 0 0 0 0 0 0 0 0 0 0 0 0 0 0 0 0 0 0 0 0 0 0 0 0 0 0 0v0c0 0 0 0 0 0v0c-8 4.8-8 4.8-8 4.8v0zM699.2 849.6l-35.2-75.2c3.2-1.6 4.8-3.2 8-3.2l36.8 75.2c-1.6 0-3.2 1.6-4.8 1.6 0 0 0 0 0 0s0 0 0 0 0 0 0 0 0 0 0 0 0 0 0 0 0 0 0 0 0 0 0 0 0 0 0 0 0 0 0 0 0 0 0 0 0 0 0 0 0 0 0 0 0 0 0 0 0 0 0 0 0 0 0 0 0 0 0 0 0 0 0 0 0 0 0 0 0 0 0 0 0 0 0 0 0 0 0 0 0 0 0 0 0 0 0 0 0 0 0 0 0 0 0 0 0 0 0 0v0c-3.2 1.6-3.2 1.6-4.8 1.6v0zM627.2 876.8l-22.4-80c3.2 0 6.4-1.6 8-3.2l24 80c-1.6 0-1.6 0-3.2 1.6 0 0 0 0 0 0s0 0 0 0 0 0 0 0 0 0 0 0 0 0 0 0 0 0 0 0 0 0 0 0 0 0 0 0c-1.6 0-3.2 0-6.4 1.6v0c0 0 0 0 0 0s0 0 0 0 0 0 0 0 0 0 0 0 0 0 0 0 0 0 0 0v0c0 0 0 0 0 0v0zM550.4 889.6l-6.4-81.6c3.2 0 6.4 0 9.6-1.6l9.6 83.2c-4.8 0-9.6 0-12.8 0v0zM512 926.4c64 0 128-12.8 187.2-38.4 57.6-24 108.8-59.2 152-102.4 44.8-44.8 78.4-96 102.4-152 25.6-57.6 36.8-121.6 36.8-185.6s-12.8-128-38.4-187.2c-24-57.6-59.2-108.8-102.4-152-44.8-44.8-96-78.4-152-102.4-57.6-25.6-121.6-36.8-185.6-36.8s-128 12.8-187.2 38.4c-57.6 24-108.8 59.2-152 102.4-44.8 44.8-78.4 96-102.4 152-25.6 57.6-36.8 121.6-36.8 185.6s12.8 128 38.4 187.2c24 57.6 59.2 108.8 102.4 152 44.8 44.8 96 78.4 152 102.4 57.6 25.6 121.6 36.8 185.6 36.8zM512 960c-283.2 0-512-228.8-512-512s228.8-512 512-512c283.2 0 512 228.8 512 512s-228.8 512-512 512v0z" />
<glyph unicode="&#xe642;" d="M315.2 209.6c-35.2-36.8-44.8-81.6-25.6-92.8 17.6-9.6 59.2 1.6 89.6 33.6 9.6 11.2 17.6 22.4 24 35.2 1.6 3.2 1.6 4.8 3.2 8s1.6 4.8 3.2 8c8 24 8 49.6 1.6 76.8-1.6-1.6-3.2-1.6-4.8-3.2v0c0 0-54.4-25.6-91.2-65.6zM512 960c-283.2 0-512-228.8-512-512s228.8-512 512-512c283.2 0 512 228.8 512 512s-228.8 512-512 512zM678.4 505.6c-88-33.6-161.6-28.8-192-19.2-33.6 11.2-54.4 33.6-59.2 46.4-1.6 4.8-4.8 12.8 0 16 3.2 1.6 4.8 1.6 12.8-8s41.6-33.6 104-25.6c164.8 17.6 262.4 145.6 232 214.4-22.4 48-148.8 70.4-305.6-9.6-193.6-96-203.2-176-204.8-204.8-4.8-83.2 102.4-126.4 160-187.2 1.6-1.6 3.2-3.2 3.2-4.8 17.6 6.4 41.6 9.6 80 11.2 92.8 1.6 145.6-59.2 144-115.2-1.6-43.2-41.6-60.8-49.6-62.4-4.8-1.6-8-1.6-9.6 3.2 0 3.2 1.6 4.8 8 8s25.6 16 28.8 40c3.2 24-14.4 80-104 89.6-32 3.2-57.6 1.6-78.4-4.8 16-33.6 19.2-104-17.6-156.8-36.8-56-105.6-89.6-172.8-70.4-22.4 6.4-54.4 51.2-25.6 113.6 27.2 59.2 140.8 116.8 156.8 124.8v0c-52.8 46.4-182.4 107.2-200 201.6-4.8 27.2 8 91.2 86.4 164.8 65.6 62.4 158.4 108.8 243.2 139.2 142.4 51.2 292.8 20.8 316.8-70.4 20.8-88-57.6-195.2-156.8-233.6z" />
<glyph unicode="&#xe643;" d="M748.8 276.8c-38.4 0-75.2-12.8-104-35.2l-297.6 179.2c1.6 9.6 3.2 19.2 3.2 27.2 0 9.6-1.6 19.2-3.2 27.2l297.6 177.6c28.8-22.4 64-35.2 104-35.2 94.4 0 171.2 76.8 171.2 171.2-1.6 94.4-76.8 171.2-171.2 171.2s-171.2-76.8-171.2-171.2c0-9.6 1.6-19.2 3.2-27.2l-297.6-177.6c-28.8 22.4-64 35.2-104 35.2-94.4 0-169.6-76.8-169.6-171.2s76.8-171.2 171.2-171.2c38.4 0 75.2 12.8 104 35.2l297.6-177.6c-1.6-9.6-3.2-17.6-3.2-27.2 0-94.4 76.8-171.2 171.2-171.2s171.2 76.8 171.2 171.2c-3.2 94.4-78.4 169.6-172.8 169.6z" horiz-adv-x="928" />
<glyph unicode="&#xe644;" d="M948.8 379.2c3.2 22.4 6.4 44.8 6.4 68.8 0 252.8-204.8 456-456 456-24 0-46.4-1.6-68.8-6.4-46.4 38.4-105.6 62.4-169.6 62.4-144 0-260.8-116.8-260.8-260.8 0-59.2 19.2-112 52.8-156.8-6.4-30.4-11.2-64-11.2-96 0-252.8 204.8-456 456-456 32 0 64 3.2 94.4 9.6 46.4-40 105.6-64 171.2-64 144 0 260.8 116.8 260.8 260.8 0 70.4-28.8 134.4-75.2 182.4zM712 248c-17.6-25.6-44.8-44.8-78.4-60.8-35.2-14.4-75.2-22.4-123.2-22.4-57.6 0-104 9.6-140.8 30.4-25.6 14.4-48 33.6-64 57.6s-24 46.4-24 68.8c0 12.8 4.8 24 14.4 33.6s22.4 14.4 38.4 14.4c12.8 0 22.4-3.2 32-11.2 8-6.4 16-17.6 22.4-32 8-17.6 16-30.4 24-41.6s20.8-20.8 35.2-28.8c16-8 35.2-11.2 60.8-11.2 35.2 0 62.4 8 84.8 22.4s32 33.6 32 56c0 17.6-6.4 32-17.6 43.2s-27.2 19.2-44.8 25.6c-19.2 6.4-43.2 11.2-73.6 19.2-41.6 9.6-76.8 19.2-104 32s-49.6 28.8-67.2 49.6c-16 20.8-24 46.4-24 76.8 0 28.8 8 54.4 25.6 78.4 17.6 22.4 41.6 40 75.2 52.8s72 17.6 115.2 17.6c35.2 0 65.6-3.2 91.2-12.8 25.6-8 48-19.2 64-32 17.6-12.8 28.8-27.2 36.8-41.6s11.2-28.8 11.2-43.2c0-12.8-4.8-24-14.4-35.2-9.6-9.6-22.4-16-36.8-16-12.8 0-24 3.2-30.4 9.6s-14.4 16-22.4 30.4c-11.2 19.2-22.4 35.2-38.4 46.4-14.4 11.2-38.4 17.6-70.4 17.6-30.4 0-54.4-6.4-73.6-17.6-19.2-12.8-27.2-27.2-27.2-43.2 0-11.2 3.2-19.2 9.6-27.2s14.4-14.4 25.6-19.2c11.2-4.8 22.4-9.6 33.6-12.8s30.4-8 56-14.4c32-6.4 62.4-14.4 88-22.4s48-19.2 67.2-30.4c19.2-12.8 33.6-27.2 43.2-46.4s16-41.6 16-67.2c-1.6-38.4-9.6-67.2-27.2-92.8z" />
<glyph unicode="&#xe645;" d="M976 472c-3.2-3.2-8-4.8-11.2-8v396.8c0 54.4-41.6 99.2-92.8 99.2h-718.4c-51.2 0-92.8-44.8-92.8-99.2v-396.8c-4.8 3.2-8 4.8-12.8 8-30.4 20.8-51.2-8-32-35.2 36.8-44.8 105.6-100.8 212.8-144-112-384 275.2-444.8 268.8-248 0-3.2 0 112 0 193.6 9.6-1.6 19.2-4.8 27.2-6.4 0-81.6 0-190.4 0-187.2-6.4-196.8 382.4-136 268.8 248 107.2 43.2 176 99.2 212.8 144 19.2 27.2 0 57.6-30.4 35.2zM593.6 374.4c-48 1.6-65.6-17.6-67.2-49.6-11.2 8-22.4 17.6-35.2 28.8-1.6 1.6-3.2 3.2-6.4 4.8-9.6 11.2-27.2 17.6-54.4 16-64-1.6-179.2-14.4-315.2 56v385.6c0 70.4 17.6 91.2 81.6 91.2h635.2c60.8 0 81.6-25.6 81.6-91.2v-380.8c-137.6-75.2-256-62.4-320-60.8zM662.4 652.8c-68.8 0-123.2-51.2-123.2-115.2s56-115.2 123.2-115.2c68.8 0 123.2 51.2 123.2 115.2s-54.4 115.2-123.2 115.2zM499.2 537.6c0-63.623-55.159-115.2-123.2-115.2s-123.2 51.577-123.2 115.2c0 63.623 55.159 115.2 123.2 115.2s123.2-51.577 123.2-115.2z" />
<glyph unicode="&#xe646;" d="M49.6 440c-1.6 0-3.2-1.6-4.8-4.8l-9.6-91.2 9.6-89.6c0-1.6 1.6-4.8 4.8-4.8 1.6 0 3.2 1.6 4.8 4.8l11.2 89.6-11.2 91.2c-1.6 3.2-3.2 4.8-4.8 4.8zM11.2 404.8c-1.6 0-3.2-1.6-4.8-4.8l-6.4-56 8-56c0-1.6 1.6-3.2 4.8-3.2 1.6-1.6 3.2 0 3.2 3.2l9.6 56-9.6 56c0 3.2-1.6 4.8-4.8 4.8zM89.6 457.6c-3.2 0-4.8-1.6-4.8-4.8l-9.6-108.8 9.6-105.6c0-3.2 3.2-4.8 4.8-4.8 3.2 0 4.8 1.6 4.8 4.8l11.2 105.6-11.2 108.8c0 3.2-1.6 4.8-4.8 4.8zM129.6 460.8c-3.2 0-6.4-3.2-6.4-6.4l-9.6-112 9.6-108.8c0-3.2 3.2-6.4 6.4-6.4s6.4 3.2 6.4 6.4l9.6 108.8-9.6 112c0 4.8-3.2 6.4-6.4 6.4zM177.6 233.6v0 0zM177.6 448c0 3.2-3.2 6.4-6.4 6.4s-6.4-3.2-6.4-6.4l-8-104 8-108.8c0-3.2 3.2-6.4 6.4-6.4s6.4 3.2 6.4 6.4l9.6 108.8-9.6 104zM212.8 520c-4.8 0-8-3.2-8-8l-8-169.6 8-108.8c0-4.8 3.2-8 8-8s8 3.2 8 8v0l9.6 108.8-9.6 169.6c-1.6 4.8-4.8 8-8 8zM252.8 560c-4.8 0-8-3.2-8-8 0 0-8-208-8-208l8-108.8c0-4.8 3.2-8 8-8s8 3.2 8 8v0l8 108.8-8 208c1.6 3.2-3.2 8-8 8zM296 577.6c-4.8 0-9.6-4.8-9.6-9.6 0 0-6.4-225.6-6.4-225.6l6.4-107.2c0-4.8 4.8-9.6 9.6-9.6s9.6 4.8 9.6 9.6v0l8 107.2-8 225.6c0 6.4-4.8 9.6-9.6 9.6zM348.8 576c0 6.4-4.8 9.6-9.6 9.6-6.4 0-9.6-4.8-9.6-9.6l-6.4-233.6 6.4-107.2c0-6.4 4.8-9.6 9.6-9.6 6.4 0 9.6 4.8 9.6 9.6l8 107.2-8 233.6zM348.8 236.8v0 0zM380.8 580.8c-6.4 0-11.2-4.8-11.2-11.2l-6.4-227.2 6.4-105.6c0-6.4 4.8-11.2 11.2-11.2s11.2 4.8 11.2 11.2v0l6.4 105.6-6.4 227.2c0 6.4-4.8 11.2-11.2 11.2zM424 574.4c-6.4 0-12.8-4.8-12.8-12.8l-4.8-219.2 4.8-105.6c0-6.4 4.8-11.2 12.8-11.2 6.4 0 11.2 4.8 12.8 12.8v0l6.4 105.6-6.4 219.2c-1.6 4.8-6.4 11.2-12.8 11.2zM473.6 614.4c-1.6 1.6-4.8 1.6-6.4 1.6-3.2 0-4.8 0-6.4-1.6-3.2-1.6-6.4-6.4-6.4-11.2v-3.2l-6.4-256c0 0 4.8-104 4.8-104s0 0 0 0c0-3.2 1.6-6.4 3.2-8 3.2-3.2 6.4-4.8 9.6-4.8s6.4 1.6 9.6 3.2c1.6 1.6 3.2 4.8 3.2 9.6v9.6l4.8 94.4-3.2 259.2c0 4.8-3.2 8-6.4 11.2zM480 238.4v0 0 0 0 0 0zM516.8 638.4c-1.6 1.6-4.8 1.6-6.4 1.6-3.2 0-6.4-1.6-8-3.2-3.2-3.2-4.8-6.4-4.8-11.2v-1.6l-6.4-281.6 3.2-52.8 1.6-49.6c0-8 6.4-14.4 14.4-14.4s14.4 6.4 14.4 14.4v0 0l6.4 102.4-6.4 283.2c-1.6 6.4-4.8 11.2-8 12.8zM897.6 476.8c-17.6 0-33.6-3.2-48-9.6-9.6 113.6-105.6 203.2-220.8 203.2-28.8 0-56-4.8-80-14.4-9.6-3.2-12.8-8-12.8-14.4v-400c0-8 6.4-14.4 12.8-14.4 0 0 348.8 0 348.8 0 68.8 0 126.4 56 126.4 124.8s-56 124.8-126.4 124.8z" />
<glyph unicode="&#xe647;" d="M512 960c-283.2 0-512-228.8-512-512s228.8-512 512-512 512 228.8 512 512c0 283.2-228.8 512-512 512zM708.8 204.8c-8 0-14.4 3.2-22.4 8-73.6 44.8-166.4 68.8-265.6 68.8-54.4 0-110.4-6.4-161.6-17.6-8-1.6-19.2-4.8-25.6-4.8-19.2 0-32 16-32 32 0 20.8 12.8 32 27.2 35.2 64 14.4 126.4 22.4 192 22.4 112 0 211.2-25.6 297.6-76.8 12.8-8 20.8-14.4 20.8-33.6 1.6-20.8-12.8-33.6-30.4-33.6zM764.8 340.8c-11.2 0-17.6 4.8-25.6 9.6-83.2 48-198.4 81.6-324.8 81.6-65.6 0-120-9.6-166.4-20.8-9.6-3.2-16-6.4-25.6-6.4-22.4 0-40 17.6-40 40s11.2 36.8 32 43.2c57.6 16 116.8 28.8 201.6 28.8 134.4 0 264-33.6 364.8-94.4 17.6-9.6 24-22.4 24-40 0-24-17.6-41.6-40-41.6zM828.8 497.6c-11.2 0-16 3.2-25.6 8-94.4 56-238.4 86.4-376 86.4-68.8 0-139.2-6.4-204.8-24-8-1.6-17.6-4.8-25.6-4.8-27.2 0-48 22.4-48 49.6s17.6 43.2 35.2 49.6c73.6 20.8 155.2 32 243.2 32 150.4 0 308.8-30.4 424-99.2 16-9.6 25.6-22.4 25.6-46.4 0-30.4-22.4-51.2-48-51.2z" />
<glyph unicode="&#xe648;" d="M3.2 512h825.6v-169.6h-825.6v169.6zM3.2 296v-44.8c0-38.4 12.8-70.4 38.4-96 25.6-27.2 56-40 92.8-40h352v-179.2l172.8 179.2h38.4c35.2 0 67.2 12.8 92.8 40s38.4 59.2 38.4 96v44.8h-825.6zM3.2 731.2h825.6v-169.6h-825.6v169.6zM828.8 824c0 36.8-12.8 68.8-38.4 96s-56 40-92.8 40h-563.2c-35.2 0-67.2-12.8-92.8-40-25.6-25.6-38.4-57.6-38.4-96v-44.8h825.6v44.8z" horiz-adv-x="832" />
<glyph unicode="&#xe649;" d="M596.8 356.8c22.4 0 46.4 0 68.8 0 0-140.8 0-280 0-420.8-222.4 0-444.8 0-667.2 0 0 140.8 0 280 0 420.8 22.4 0 44.8 0 68.8 0 0-116.8 0-235.2 0-352 177.6 0 353.6 0 531.2 0-1.6 116.8-1.6 233.6-1.6 352zM401.6 827.2c76.8-112 152-222.4 227.2-334.4 24 16 48 32 72 48-76.8 112-152 222.4-227.2 334.4-24-16-48-32-72-48zM616 481.6c-116.8 68.8-232 137.6-348.8 204.8-14.4-25.6-28.8-49.6-43.2-75.2 116.8-68.8 232-136 348.8-204.8 14.4 25.6 28.8 49.6 43.2 75.2zM732.8 960c-28.8-4.8-56-9.6-84.8-14.4 22.4-132.8 46.4-265.6 68.8-398.4 28.8 4.8 57.6 9.6 84.8 14.4-22.4 132.8-46.4 265.6-68.8 398.4zM564.8 382.4c-129.6 35.2-260.8 70.4-390.4 105.6-8-27.2-14.4-56-22.4-83.2 129.6-35.2 260.8-70.4 390.4-105.6 8 27.2 14.4 56 22.4 83.2zM528 158.4c-134.4 0-268.8 0-403.2 0 0-28.8 0-57.6 0-86.4 134.4 0 268.8 0 403.2 0 0 30.4 0 57.6 0 86.4zM537.6 270.4c-134.4 12.8-268.8 24-403.2 36.8-3.2-28.8-4.8-57.6-8-86.4 134.4-12.8 268.8-24 403.2-36.8 3.2 28.8 6.4 57.6 8 86.4z" horiz-adv-x="800" />
<glyph unicode="&#xe64a;" d="M704 676.8c0-52.8 43.2-96 96-96s96 43.2 96 96c0 52.8-43.2 96-96 96s-96-43.2-96-96zM958.4 835.2c-88 88-228.8 88-316.8 0-35.2-35.2-56-80-64-126.4v0l-204.8-310.4c-27.2-1.6-54.4-8-80-20.8l-158.4 123.2c-36.8 28.8-89.6 22.4-118.4-14.4s-22.4-89.6 14.4-118.4l155.2-121.6c-17.6-67.2 0-140.8 52.8-192 78.4-78.4 206.4-78.4 286.4 0 48 48 67.2 115.2 56 177.6l251.2 224c46.4 6.4 91.2 27.2 126.4 64 88 86.4 88 227.2 0 315.2zM384 62.4c-73.6 0-134.4 60.8-134.4 134.4 0 0 0 1.6 0 1.6l67.2-52.8c16-12.8 33.6-17.6 51.2-17.6 25.6 0 49.6 11.2 65.6 32 28.8 36.8 22.4 89.6-14.4 118.4l-64 49.6c9.6 1.6 17.6 3.2 27.2 3.2 73.6 0 134.4-60.8 134.4-134.4s-59.2-134.4-132.8-134.4zM800 516.8c-88 0-160 72-160 160s72 160 160 160 160-72 160-160c0-88-72-160-160-160z" />
<glyph unicode="&#xe64b;" d="M566.4 547.2l70.4-33.6 105.6 33.6v60.8c0 126.4-102.4 228.8-228.8 228.8s-230.4-102.4-230.4-228.8v-320c0-30.4-24-54.4-54.4-54.4s-52.8 24-52.8 54.4v134.4h-176v-134.4c0-126.4 102.4-228.8 228.8-228.8s228.8 102.4 228.8 228.8v320c0 30.4 24 54.4 54.4 54.4s54.4-24 54.4-54.4v-60.8zM848 422.4v-134.4c0-30.4-24-54.4-54.4-54.4s-54.4 24-54.4 54.4v137.6l-105.6-33.6-70.4 33.6v-137.6c0-126.4 102.4-228.8 228.8-228.8 129.6 0 232 102.4 232 228.8v134.4h-176z" />
<glyph unicode="&#xe64c;" d="M336 960c-184 0-332.8-150.4-332.8-332.8 0-54.4 12.8-108.8 38.4-156.8 6.4-12.8 24-17.6 36.8-11.2s17.6 24 11.2 36.8c-20.8 40-32 84.8-32 131.2 0 153.6 124.8 278.4 278.4 278.4s278.4-124.8 278.4-278.4-124.8-280-278.4-280c-20.8 0-43.2 3.2-64 8-14.4 3.2-28.8-6.4-33.6-20.8-3.2-14.4 6.4-28.8 20.8-33.6 25.6-6.4 51.2-8 76.8-8 184 0 332.8 150.4 332.8 332.8s-148.8 334.4-332.8 334.4zM275.2 540.8c17.6-12.8 40-20.8 64-20.8 62.4 0 112 51.2 112 112s-51.2 112-112 112-112-51.2-112-112c0-17.6 4.8-35.2 12.8-51.2-22.4-22.4-48-51.2-72-86.4-67.2-99.2-145.6-270.4-129.6-534.4 1.6-14.4 12.8-25.6 27.2-25.6 0 0 1.6 0 1.6 0 14.4 1.6 27.2 14.4 25.6 28.8-14.4 244.8 56 406.4 118.4 497.6 20.8 33.6 43.2 59.2 64 80z" horiz-adv-x="672" />
<glyph unicode="&#xe64d;" d="M1011.2 947.2c-8 8-17.6 12.8-30.4 12.8h-937.6c-12.8 0-22.4-4.8-30.4-12.8s-12.8-17.6-12.8-30.4v-939.2c0-11.2 4.8-20.8 12.8-30.4 8-6.4 17.6-11.2 30.4-11.2h939.2c11.2 0 20.8 4.8 30.4 12.8 8 8 12.8 19.2 12.8 30.4v937.6c-1.6 12.8-6.4 22.4-14.4 30.4zM468.8 148.8c0-6.4-1.6-11.2-6.4-16-3.2-3.2-9.6-6.4-16-6.4h-318.4c-6.4 0-11.2 1.6-16 6.4-3.2 3.2-6.4 9.6-6.4 16v683.2c0 6.4 1.6 11.2 6.4 16s9.6 6.4 16 6.4h320c6.4 0 11.2-1.6 16-6.4s6.4-9.6 6.4-16v-683.2zM916.8 404.8c0-6.4-1.6-11.2-6.4-16-3.2-3.2-9.6-6.4-16-6.4h-318.4c-6.4 0-11.2 1.6-16 6.4s-6.4 9.6-6.4 16v427.2c0 6.4 1.6 11.2 6.4 16s9.6 6.4 16 6.4h320c6.4 0 11.2-1.6 16-6.4 3.2-3.2 6.4-9.6 6.4-16v-427.2z" />
<glyph unicode="&#xe64e;" d="M627.2 726.4c28.8-4.8 56-11.2 84.8-19.2 48-14.4 94.4-35.2 136-62.4 3.2-1.6 6.4-3.2 11.2-3.2 49.6 0 100.8 0 150.4 0 4.8 0 8 0 12.8 0 0-1.6 0-1.6 0-1.6-1.6-3.2-4.8-6.4-6.4-11.2-17.6-25.6-32-52.8-40-83.2-1.6-3.2-1.6-6.4 1.6-9.6 44.8-64 59.2-134.4 40-211.2-16-67.2-54.4-118.4-113.6-155.2-41.6-25.6-88-38.4-136-38.4-20.8 0-41.6 3.2-60.8 8-49.6 12.8-91.2 36.8-126.4 73.6-4.8 4.8-9.6 9.6-14.4 16-17.6-27.2-36.8-54.4-54.4-81.6-19.2 27.2-36.8 54.4-54.4 80-1.6 0-1.6 0-1.6-1.6 0 0 0 0-1.6-1.6-41.6-49.6-94.4-80-158.4-89.6-35.2-6.4-70.4-3.2-105.6 6.4-49.6 12.8-91.2 40-124.8 78.4-33.6 36.8-52.8 81.6-60.8 129.6-9.6 46.4 1.6 91.2 4.8 100.8 6.4 30.4 19.2 59.2 38.4 84.8 1.6 1.6 1.6 4.8 1.6 8-8 27.2-20.8 52.8-35.2 76.8-3.2 6.4-8 11.2-12.8 17.6 0 0 0 1.6 0 1.6 1.6 0 1.6 0 3.2 0 51.2 0 102.4 0 155.2 0 1.6 0 4.8 1.6 6.4 1.6 36.8 24 75.2 41.6 115.2 56 28.8 9.6 59.2 17.6 89.6 24 28.8 6.4 59.2 9.6 89.6 11.2 70.4 8 128 0 166.4-4.8zM563.2 385.6c0-113.6 91.2-204.8 204.8-204.8s204.8 89.6 204.8 204.8c0 118.4-96 206.4-208 204.8-113.6-3.2-201.6-92.8-201.6-204.8zM256 590.4c-110.4 1.6-206.4-91.2-203.2-208 1.6-108.8 91.2-201.6 206.4-200 112 1.6 201.6 92.8 201.6 203.2 0 113.6-91.2 204.8-204.8 204.8zM267.2 643.2c60.8-3.2 116.8-25.6 161.6-67.2 46.4-41.6 73.6-94.4 83.2-155.2 9.6 60.8 36.8 112 81.6 153.6s99.2 64 160 67.2c-72 32-148.8 46.4-227.2 48-89.6 1.6-177.6-11.2-259.2-46.4zM766.4 515.2c70.4 0 126.4-56 126.4-126.4s-56-124.8-121.6-126.4c-73.6-3.2-132.8 56-132.8 126.4 1.6 72 60.8 128 128 126.4zM849.6 388.8c0 46.4-36.8 83.2-81.6 83.2-46.4 0-83.2-36.8-83.2-81.6s36.8-83.2 83.2-83.2c44.8-1.6 81.6 35.2 81.6 81.6zM254.4 515.2c70.4 0 126.4-56 126.4-126.4s-56-123.2-120-126.4c-73.6-3.2-132.8 56-132.8 126.4-1.6 72 57.6 128 126.4 126.4zM336 388.8c0 46.4-36.8 83.2-83.2 81.6-44.8 0-81.6-38.4-81.6-83.2s36.8-83.2 83.2-83.2c44.8 1.6 81.6 38.4 81.6 84.8zM766.4 430.4c24 0 41.6-19.2 41.6-41.6s-19.2-41.6-41.6-41.6c-24 0-41.6 19.2-41.6 41.6s19.2 41.6 41.6 41.6zM252.8 430.4c24 0 43.2-19.2 43.2-41.6 0-24-19.2-41.6-43.2-43.2-24 0-43.2 19.2-43.2 43.2 1.6 24 19.2 41.6 43.2 41.6z" />
<glyph unicode="&#xe64f;" d="M478.4 104c-88 0-126.4 68.8-126.4 121.6 0 24 0 163.2 0 320h224v160h-224c0 134.4 0 254.4 0 254.4s-91.2 0-161.6 0c0-222.4-190.4-262.4-190.4-262.4v-152h128c0 0 0-251.2 0-377.6s116.8-232 259.2-232c142.4 0 220.8 56 220.8 56v168c0 0-43.2-56-129.6-56z" horiz-adv-x="608" />
<glyph unicode="&#xe650;" d="M718.4 70.4h-200l-134.4-134.4h-134.4v134.4h-243.2v712l67.2 177.6h912v-624l-267.2-265.6zM896 380.8v489.6h-734.4v-644.8h200v-132.8l132.8 132.8h244.8l156.8 155.2zM651.2 692.8v-267.2h89.6v267.2h-89.6zM406.4 425.6h89.6v267.2h-89.6v-267.2z" horiz-adv-x="992" />
<glyph unicode="&#xe651;" d="M1024 764.8c-17.6-9.6-68.8-28.8-116.8-33.6 30.4 16 76.8 72 88 115.2-30.4-19.2-97.6-46.4-131.2-46.4 0 0 0 0 0 0-40 38.4-92.8 64-153.6 64-116.8 0-211.2-94.4-211.2-211.2 0-16 1.6-32 4.8-46.4v0c-158.4 4.8-344 83.2-448 219.2-64-110.4-8-233.6 64-278.4-24-3.2-70.4 1.6-91.2 22.4-1.6-73.6 33.6-171.2 163.2-206.4-25.6-12.8-68.8-9.6-88-6.4 6.4-62.4 94.4-144 188.8-144-33.6-38.4-148.8-110.4-292.8-88 97.6-59.2 211.2-92.8 331.2-92.8 340.8 0 604.8 276.8 592 617.6 0 0 0 1.6 0 1.6 0 1.6 0 1.6 0 3.2s0 1.6 0 3.2c28.8 19.2 70.4 57.6 100.8 107.2z" />
<glyph unicode="&#xe652;" d="M97.6 542.4c-52.8 0-94.4-41.6-94.4-94.4s41.6-94.4 94.4-94.4c52.8 0 94.4 41.6 94.4 94.4s-43.2 94.4-94.4 94.4zM772.8 112c-44.8-25.6-60.8-83.2-35.2-129.6 25.6-44.8 83.2-60.8 129.6-35.2 44.8 25.6 60.8 83.2 35.2 129.6s-84.8 62.4-129.6 35.2zM302.4 448c0 92.8 46.4 176 116.8 225.6l-68.8 115.2c-83.2-56-144-139.2-169.6-238.4 30.4-24 49.6-60.8 49.6-102.4s-19.2-78.4-49.6-102.4c25.6-99.2 86.4-184 169.6-238.4l68.8 115.2c-70.4 49.6-116.8 132.8-116.8 225.6zM579.2 724.8c144 0 262.4-110.4 275.2-251.2l134.4 1.6c-6.4 104-52.8 198.4-121.6 267.2-35.2-12.8-76.8-11.2-113.6 9.6-35.2 20.8-59.2 56-64 94.4-35.2 9.6-72 14.4-110.4 14.4-65.6 0-128-16-182.4-43.2l65.6-118.4c35.2 16 75.2 25.6 116.8 25.6zM579.2 171.2c-41.6 0-81.6 9.6-116.8 25.6l-65.6-116.8c54.4-27.2 116.8-43.2 182.4-43.2 38.4 0 75.2 4.8 110.4 14.4 6.4 38.4 28.8 73.6 64 94.4s76.8 22.4 113.6 9.6c70.4 68.8 115.2 161.6 121.6 267.2l-134.4 1.6c-12.8-142.4-131.2-252.8-275.2-252.8zM772.8 784c44.8-25.6 102.4-11.2 129.6 35.2 25.6 44.8 9.6 102.4-35.2 128s-102.4 11.2-129.6-35.2c-25.6-44.8-9.6-102.4 35.2-128z" horiz-adv-x="992" />
<glyph unicode="&#xe653;" d="M705.6 444.8c0 1.6-1.6 3.2-1.6 4.8-9.6-4.8-17.6-9.6-27.2-14.4s-17.6-8-27.2-11.2c-9.6-3.2-19.2-6.4-28.8-8 0-1.6 0-1.6 0-1.6 0-1.6 1.6-3.2 1.6-3.2 12.8-33.6 19.2-68.8 19.2-105.6 0-30.4-3.2-59.2-12.8-88-12.8-43.2-35.2-81.6-65.6-115.2-46.4-48-102.4-73.6-169.6-80-6.4 0-12.8 0-19.2 0 0 1.6 0 1.6 0 1.6 3.2 3.2 6.4 4.8 9.6 8 68.8 52.8 123.2 116.8 161.6 193.6 32 64 48 132.8 49.6 204.8 0 35.2-1.6 70.4-8 104-6.4 40-17.6 76.8-32 115.2 0 1.6-1.6 3.2-3.2 6.4-1.6 6.4-1.6 8-1.6 9.6s0 3.2 0 3.2c-3.2 32-9.6 64-17.6 96-11.2 41.6-28.8 83.2-52.8 120-16 25.6-35.2 49.6-59.2 68.8-3.2 3.2-4.8 4.8-8 6.4 0-1.6 0-1.6 0-3.2 1.6-3.2 3.2-6.4 4.8-9.6 40-70.4 76.8-142.4 107.2-217.6 8-20.8 16-41.6 24-62.4l1.6-4.8c0-1.6 0-3.2 1.6-9.6 0-11.2 1.6-22.4 1.6-32 1.6-56 0-113.6-6.4-169.6-3.2-25.6-6.4-52.8-9.6-78.4-4.8-32-12.8-64-22.4-96-11.2-38.4-25.6-76.8-44.8-112-17.6-32-38.4-60.8-64-86.4-24-22.4-51.2-41.6-81.6-54.4-3.2-1.6-6.4-1.6-9.6-1.6-41.6 8-80 25.6-113.6 51.2-28.8 22.4-51.2 51.2-68.8 83.2-19.2 35.2-30.4 72-33.6 110.4-1.6 22.4-1.6 46.4 1.6 68.8 3.2 28.8 11.2 54.4 22.4 81.6 17.6 38.4 41.6 70.4 73.6 99.2 24 22.4 51.2 38.4 81.6 49.6 19.2 8 40 12.8 60.8 14.4 17.6 1.6 36.8 1.6 56 1.6 24-1.6 46.4-6.4 68.8-16 1.6 0 3.2-1.6 6.4-1.6 1.6 16 4.8 30.4 9.6 44.8s11.2 27.2 17.6 41.6c-3.2 3.2-8 3.2-11.2 4.8-30.4 9.6-60.8 14.4-91.2 16-33.6 1.6-67.2 0-99.2-6.4-40-8-76.8-22.4-110.4-43.2-32-20.8-60.8-46.4-84.8-75.2-54.4-64-84.8-139.2-88-224-1.6-24 0-48 3.2-73.6 4.8-33.6 12.8-67.2 27.2-99.2 22.4-51.2 54.4-94.4 94.4-132.8 30.4-27.2 64-49.6 102.4-64 35.2-14.4 73.6-20.8 110.4-22.4 35.2-1.6 70.4 0 105.6 8 46.4 9.6 89.6 28.8 128 57.6 30.4 22.4 56 49.6 78.4 78.4 44.8 59.2 68.8 126.4 72 200 1.6 30.4 0 60.8-4.8 89.6-8 32-14.4 56-24 80zM878.4 844.8c-8 28.8-19.2 56-33.6 81.6-1.6 3.2-4.8 8-8 11.2-1.6-3.2-3.2-6.4-4.8-9.6-9.6-19.2-22.4-36.8-38.4-52.8-24-24-51.2-40-84.8-48-3.2 0-6.4-1.6-8-1.6-24-6.4-48-16-68.8-28.8-14.4-8-27.2-19.2-38.4-33.6-19.2-25.6-28.8-54.4-27.2-86.4 1.6-25.6 8-51.2 20.8-73.6 0-1.6 1.6-1.6 3.2-3.2 104 25.6 180.8 84.8 235.2 179.2 0-3.2 0-4.8 0-6.4-1.6-8-4.8-16-8-24-8-16-19.2-30.4-30.4-44.8-20.8-24-44.8-44.8-70.4-64-30.4-22.4-62.4-44.8-96-64-3.2-1.6-4.8-1.6-6.4-4.8 4.8-4.8 8-8 12.8-11.2 17.6-14.4 35.2-25.6 56-32 19.2-6.4 40-8 60.8-4.8 25.6 4.8 46.4 16 65.6 32s33.6 35.2 46.4 56c6.4 12.8 14.4 24 19.2 38.4 9.6 27.2 16 56 17.6 86.4-1.6 36.8-4.8 73.6-14.4 108.8z" horiz-adv-x="896" />
<glyph unicode="&#xe654;" d="M862.4 896c-129.6 0-232-84.8-276.8-243.2 48 22.4 134.4 35.2 142.4-44.8 6.4-80-113.6-284.8-166.4-284.8s-91.2 232-105.6 337.6c-12.8 107.2-38.4 224-137.6 224-100.8 0-228.8-156.8-318.4-227.2l46.4-64c0 0 67.2 52.8 89.6 48 60.8-16 112-262.4 139.2-356.8s59.2-284.8 190.4-284.8c209.6 0 558.4 521.6 558.4 692.8 0 112-32 203.2-161.6 203.2z" />
<glyph unicode="&#xe655;" d="M921.6 454.4c-17.6-4.8-36.8-8-56-9.6-92.8-8-172.8 19.2-224 100.8-30.4 49.6-40 105.6-36.8 163.2 1.6 22.4 6.4 44.8 17.6 65.6 11.2 19.2 27.2 30.4 49.6 32 32 1.6 56-19.2 64-59.2 11.2-51.2 3.2-100.8-9.6-148.8-1.6-4.8-4.8-16-4.8-16s6.4-8 11.2-12.8c33.6-33.6 75.2-41.6 121.6-38.4 6.4 0 17.6 1.6 17.6 1.6s4.8 11.2 6.4 16c24 67.2 35.2 136 27.2 206.4-9.6 100.8-64 188.8-193.6 203.2-115.2 11.2-211.2-41.6-251.2-152-22.4-64-24-128-12.8-193.6 19.2-108.8 70.4-198.4 169.6-256 9.6-6.4 9.6-9.6 4.8-19.2-40-76.8-88-147.2-145.6-211.2-25.6-27.2-24-27.2-48 3.2-118.4 148.8-182.4 321.6-219.2 505.6-9.6 51.2-17.6 100.8-24 152l-1.6 17.6h-176l1.6-9.6c22.4-158.4 56-315.2 115.2-464 43.2-110.4 99.2-212.8 179.2-302.4 25.6-28.8 54.4-54.4 88-75.2 38.4-24 75.2-22.4 112 3.2 11.2 8 20.8 16 30.4 24 100.8 91.2 184 198.4 246.4 321.6 4.8 9.6 9.6 14.4 20.8 14.4 25.6 0 51.2 3.2 76.8 8 14.4 3.2 30.4 4.8 44.8 9.6v120z" horiz-adv-x="928" />
<glyph unicode="&#xe656;" d="M500.8 158.4h60.8c0 0 17.6 0 27.2 12.8 8 9.6 8 27.2 8 27.2s-1.6 81.6 36.8 94.4c36.8 11.2 84.8-80 137.6-115.2 33.6-22.4 68.8-19.2 68.8-19.2s126.4 0 136 0c9.6 0 68.8 8 38.4 62.4-3.2 4.8-19.2 41.6-102.4 118.4-86.4 80-73.6 67.2 28.8 204.8 62.4 83.2 86.4 134.4 80 156.8-4.8 17.6-54.4 14.4-54.4 14.4h-153.6c0 0-11.2 1.6-19.2-3.2s-12.8-16-12.8-16-24-65.6-57.6-120c-68.8-116.8-96-123.2-107.2-115.2-25.6 17.6-19.2 67.2-19.2 104 0 113.6 17.6 160-33.6 172.8-16 4.8-28.8 6.4-72 6.4-54.4 0-100.8 0-128-12.8-17.6-8-30.4-27.2-22.4-28.8 9.6-1.6 33.6-6.4 44.8-22.4 16-20.8 16-70.4 16-70.4s9.6-132.8-20.8-148.8c-20.8-11.2-49.6 11.2-110.4 116.8-32 54.4-54.4 113.6-54.4 113.6s-4.8 11.2-12.8 17.6c-12.8 9.6-24 9.6-24 9.6h-145.6c0 0-22.4 1.6-30.4-11.2-6.4-11.2 0-25.6 0-25.6s115.2-268.8 244.8-403.2c118.4-129.6 252.8-120 252.8-120v0z" />
<glyph unicode="&#xe657;" d="M1024 265.6c0 150.4-142.4 272-320 272-176 0-320-121.6-320-272s142.4-272 320-272c56 0 107.2 12.8 153.6 33.6l126.4-54.4-14.4 140.8c33.6 43.2 54.4 96 54.4 152zM596.8 339.2c-25.6 0-44.8 20.8-44.8 44.8 0 25.6 20.8 44.8 44.8 44.8 25.6 0 44.8-20.8 44.8-44.8 0-25.6-19.2-44.8-44.8-44.8zM812.8 339.2c-25.6 0-44.8 20.8-44.8 44.8 0 25.6 20.8 44.8 44.8 44.8 25.6 0 44.8-20.8 44.8-44.8 0-25.6-20.8-44.8-44.8-44.8zM704 572.8c49.6 0 96-9.6 139.2-24 0 6.4 1.6 11.2 1.6 17.6 0 196.8-188.8 356.8-422.4 356.8s-422.4-160-422.4-358.4c0-75.2 27.2-144 72-201.6l-19.2-185.6 166.4 72c41.6-19.2 86.4-32 134.4-38.4-3.2 17.6-6.4 35.2-6.4 54.4 1.6 169.6 161.6 307.2 356.8 307.2zM564.8 782.4c33.6 0 60.8-27.2 60.8-60.8s-27.2-60.8-60.8-60.8c-33.6 0-60.8 27.2-60.8 60.8s27.2 60.8 60.8 60.8zM280 662.4c-33.6 0-59.2 27.2-59.2 60.8s27.2 60.8 59.2 60.8c33.6 0 60.8-27.2 60.8-60.8s-27.2-60.8-60.8-60.8z" />
<glyph unicode="&#xe658;" d="M769.6 464c-14.4 4.8-24 8-16 25.6 16 41.6 17.6 76.8 0 102.4-33.6 48-124.8 44.8-228.8 1.6 0 0-32-14.4-24 11.2 16 51.2 14.4 94.4-11.2 120-56 56-206.4-1.6-336-131.2-96-96-152-198.4-152-288 0-169.6 217.6-272 430.4-272 278.4 0 464 161.6 464 289.6-3.2 78.4-68.8 121.6-126.4 140.8zM430.4 94.4c-169.6-16-315.2 59.2-326.4 171.2s116.8 214.4 286.4 232c169.6 16 315.2-59.2 326.4-171.2s-116.8-216-286.4-232zM953.6 772.8v0c-67.2 75.2-166.4 104-257.6 83.2v0c-20.8-4.8-35.2-25.6-30.4-46.4s25.6-35.2 46.4-30.4c65.6 14.4 136-4.8 184-59.2 48-52.8 60.8-124.8 40-188.8v0c-6.4-20.8 4.8-43.2 25.6-49.6s43.2 4.8 49.6 25.6c0 0 0 0 0 0 28.8 89.6 9.6 192-57.6 265.6zM724.8 720c-17.6-3.2-30.4-22.4-25.6-40 3.2-17.6 22.4-30.4 40-25.6v0c22.4 4.8 44.8-1.6 60.8-19.2s20.8-41.6 12.8-62.4v0c-6.4-17.6 3.2-36.8 22.4-43.2 17.6-6.4 36.8 3.2 43.2 22.4 14.4 43.2 4.8 92.8-27.2 129.6-33.6 35.2-81.6 48-126.4 38.4zM851.2 680v0 0zM446.4 411.2c-80 20.8-171.2-19.2-206.4-89.6-35.2-72-1.6-153.6 80-179.2 84.8-27.2 184 14.4 219.2 92.8 33.6 75.2-8 155.2-92.8 176zM385.6 225.6c-16-25.6-51.2-38.4-78.4-25.6-25.6 11.2-33.6 41.6-17.6 67.2s49.6 36.8 76.8 25.6c27.2-9.6 35.2-40 19.2-67.2zM440 296c-6.4-9.6-19.2-14.4-28.8-11.2-9.6 4.8-12.8 16-8 25.6 6.4 9.6 19.2 14.4 28.8 11.2 9.6-4.8 12.8-16 8-25.6z" />
<glyph unicode="&#xe659;" d="M569.6 748.8c0-3.2 0-4.8 1.6-6.4s3.2-1.6 4.8-1.6h6.4c22.4-1.6 32-8 33.6-11.2 4.8-6.4 8-14.4-4.8-44.8l-75.2-164.8-67.2 152c-22.4 48-27.2 65.6 14.4 68.8v0c6.4 0 4.8 3.2 4.8 8v20.8c0 0 0 1.6-3.2 1.6s-174.4 0-177.6 0c-1.6 0-1.6-1.6-1.6-1.6v-20.8c0-4.8 4.8-6.4 12.8-8 32-4.8 30.4-8 62.4-75.2 6.4-11.2 19.2-41.6 19.2-41.6l70.4-152c0 0 8-19.2 20.8-49.6l-102.4-225.6c-1.6-3.2-4.8 0-6.4 1.6 0 0-158.4 369.6-204.8 492.8-4.8 12.8-6.4 22.4-6.4 28.8 0 12.8 9.6 19.2 30.4 20.8l32 1.6c6.4 0 17.6 3.2 17.6 8v17.6c0 0 0 3.2-9.6 3.2s-227.2 0-235.2 0-6.4-4.8-6.4-4.8v-19.2c0-3.2 4.8-6.4 14.4-8 24-1.6 40-6.4 48-12.8s16-25.6 27.2-52.8c57.6-152 180.8-425.6 241.6-580.8 17.6-41.6 38.4-49.6 65.6 1.6 27.2 54.4 81.6 177.6 121.6 267.2 36.8-89.6 88-212.8 112-267.2 19.2-44.8 41.6-48 64-1.6 57.6 145.6 230.4 579.2 230.4 579.2 8 20.8 17.6 38.4 32 49.6 12.8 11.2 33.6 19.2 60.8 19.2 6.4 0 8 3.2 8 8v20.8c0 0 0 3.2-3.2 3.2s-156.8 0-209.6 0c0 0-14.4 0-14.4-4.8 0-3.2 0-19.2 0-19.2 0-1.6 3.2-3.2 9.6-6.4 3.2-1.6 6.4-3.2 9.6-3.2l19.2-1.6c22.4-1.6 28.8-6.4 36.8-14.4s9.6-22.4 3.2-41.6l-190.4-486.4c-1.6-3.2-4.8-1.6-6.4 1.6l-118.4 267.2c1.6 4.8 3.2 6.4 3.2 6.4l96 201.6c11.2 20.8 22.4 40 27.2 48 9.6 16 14.4 19.2 43.2 20.8 6.4 0 8 3.2 8 8v20.8c0 0 0 1.6-1.6 1.6s-115.2 0-168 0z" />
<glyph unicode="&#xe65a;" d="M0 481.6v332.8l409.6 56v-388.8h-409.6zM478.4 880l545.6 80v-478.4h-545.6v398.4zM1024 414.4v-478.4l-545.6 76.8v401.6h545.6zM409.6 20.8l-409.6 57.6v336h409.6v-393.6z" />
<glyph unicode="&#xe65b;" d="M512 960c-281.6 0-512-230.4-512-512s230.4-512 512-512c281.6 0 512 230.4 512 512s-230.4 512-512 512zM59.2 448c0 65.6 14.4 128 40 184l216-592c-152 73.6-256 228.8-256 408zM512-4.8c-44.8 0-88 6.4-128 19.2l136 395.2 139.2-382.4c1.6-1.6 1.6-4.8 3.2-6.4-46.4-17.6-97.6-25.6-150.4-25.6zM574.4 660.8c27.2 1.6 51.2 4.8 51.2 4.8 24 3.2 20.8 38.4-3.2 36.8 0 0-73.6-6.4-121.6-6.4-44.8 0-120 6.4-120 6.4-24 1.6-27.2-35.2-3.2-36.8 0 0 22.4-3.2 48-4.8l70.4-193.6-96-297.6-166.4 491.2c27.2 1.6 51.2 4.8 51.2 4.8 24 3.2 20.8 38.4-3.2 36.8 0 0-73.6-6.4-121.6-6.4-8 0-19.2 0-28.8 0 83.2 124.8 222.4 204.8 380.8 204.8 118.4 0 225.6-44.8 305.6-118.4-1.6 0-3.2 0-6.4 0-44.8 0-76.8-38.4-76.8-80 0-36.8 20.8-68.8 44.8-105.6 17.6-30.4 36.8-68.8 36.8-124.8 0-38.4-14.4-83.2-35.2-147.2l-44.8-150.4-161.6 486.4zM739.2 56l139.2 400c25.6 64 35.2 116.8 35.2 161.6 0 16-1.6 32-3.2 46.4 35.2-64 56-139.2 56-217.6-1.6-164.8-91.2-312-227.2-390.4z" />
<glyph unicode="&#xe65c;" d="M0 448c0-203.2 118.4-377.6 288-460.8l-243.2 668.8c-28.8-64-44.8-134.4-44.8-208zM857.6 473.6c0 64-22.4 107.2-41.6 140.8-25.6 41.6-49.6 78.4-49.6 120 0 46.4 35.2 91.2 86.4 91.2 1.6 0 4.8 0 6.4 0-92.8 83.2-214.4 134.4-347.2 134.4-179.2 0-336-91.2-427.2-230.4 12.8 0 24 0 33.6 0 52.8 0 136 6.4 136 6.4 27.2 1.6 30.4-38.4 3.2-41.6 0 0-27.2-3.2-59.2-4.8l185.6-556.8 112 336-80 219.2c-27.2 1.6-54.4 4.8-54.4 4.8-27.2 1.6-24 43.2 3.2 41.6 0 0 84.8-6.4 134.4-6.4 54.4 0 136 6.4 136 6.4 27.2 1.6 30.4-38.4 3.2-41.6 0 0-27.2-3.2-59.2-4.8l188.8-550.4 51.2 171.2c25.6 65.6 38.4 121.6 38.4 164.8zM521.6 403.2l-153.6-446.4c46.4-12.8 94.4-20.8 144-20.8 59.2 0 116.8 9.6 169.6 28.8-1.6 1.6-3.2 4.8-3.2 6.4l-156.8 432zM961.6 694.4c1.6-16 3.2-33.6 3.2-52.8 0-51.2-9.6-110.4-38.4-184l-156.8-452.8c152 89.6 254.4 254.4 254.4 443.2 0 89.6-22.4 172.8-62.4 246.4z" />
<glyph unicode="&#xe65d;" d="M280 729.6c-8 12.8-19.2 27.2-41.6 27.2h-147.2c-9.6 0-16-3.2-20.8-9.6-3.2-6.4-3.2-14.4 1.6-22.4l99.2-172.8c0 0 0 0 0-1.6l-155.2-275.2c-4.8-8-3.2-16 0-22.4s9.6-9.6 19.2-9.6h147.2c22.4 0 32 14.4 40 28.8 0 0 153.6 272 160 281.6-1.6 0-102.4 176-102.4 176zM880 928c4.8 8 4.8 16 0 22.4-3.2 6.4-9.6 9.6-19.2 9.6h-148.8c-22.4 0-32-14.4-40-28.8 0 0-318.4-564.8-328-582.4 0-1.6 209.6-385.6 209.6-385.6 8-12.8 19.2-28.8 41.6-28.8h147.2c9.6 0 16 3.2 19.2 9.6s3.2 14.4 0 22.4l-208 380.8c0 0 0 0 0 1.6l326.4 579.2z" horiz-adv-x="896" />
<glyph unicode="&#xe65e;" d="M432 771.2h-432v-54.4h136c52.8-43.2 280-320 288-347.2 3.2-24 8-171.2-1.6-182.4-11.2-17.6-134.4-8-156.8-9.6v-54.4c40-1.6 158.4 0 198.4 0 78.4 0 217.6 1.6 236.8 0l3.2 51.2-160 1.6c-3.2 22.4-6.4 168-3.2 184 14.4 46.4 264 238.4 284.8 243.2s36.8 4.8 36.8 4.8h60.8l12.8 17.6c12.8 17.6 27.2 32 27.2 32l3.2 4.8h-400l16-54.4h108.8l-185.6-166.4c-36.8 54.4-124.8 180.8-187.2 275.2h113.6v54.4zM873.6 249.6l68.8-4.8 80 296c-12.8 0-136 11.2-152 14.4l3.2-305.6zM862.4 203.2v-72l35.2-3.2 38.4-3.2 11.2 70.4-40 1.6-44.8 6.4z" />
<glyph unicode="&#xe65f;" d="M764.8 931.2c0 0 0 0 0 0v0h-128c-36.8-67.2-169.6-284.8-254.4-424-86.4 142.4-188.8 307.2-254.4 424h-128c104-156.8 272-456 328-555.2v-409.6h105.6l1.6 409.6c105.6 187.2 281.6 491.2 329.6 555.2zM1024 862.4c0 33.6-20.8 52.8-52.8 59.2v0 0c0 0-8 1.6-12.8 1.6-30.4 0-60.8-17.6-60.8-64-17.6-230.4-36.8-460.8-68.8-680v0c0 0 0 0 0 0v0 0l48-8c35.2 222.4 118.4 556.8 140.8 651.2 1.6 12.8 6.4 28.8 6.4 40zM824 86.4c-40 0-59.2-30.4-59.2-64 0-38.4 30.4-59.2 68.8-59.2 27.2 0 57.6 17.6 57.6 62.4 0 38.4-28.8 60.8-67.2 60.8z" />
<glyph unicode="&#xe660;" d="M366.4 507.2c28.8-1.6 51.2 17.6 51.2 52.8s12.8 364.8-14.4 388.8c-27.2 24-134.4 1.6-164.8-8-62.4-20.8-132.8-52.8-134.4-80s233.6-350.4 262.4-353.6zM692.8 707.2c-24 0-211.2-224-179.2-265.6 19.2-25.6 41.6-22.4 94.4-12.8s222.4 41.6 225.6 84.8c3.2 43.2-99.2 193.6-140.8 193.6zM326.4 377.6c0 28.8-89.6 68.8-89.6 68.8s-163.2 70.4-193.6 67.2c-30.4-3.2-41.6-80-44.8-137.6-6.4-158.4 70.4-116.8 70.4-116.8s161.6 51.2 193.6 64c32 11.2 64 25.6 64 54.4zM408 265.6c-36.8 3.2-80-64-102.4-89.6s-112-116.8-113.6-142.4c0-24 48-51.2 113.6-75.2s140.8-41.6 144 11.2c3.2 52.8 0 200 0 217.6 0 16 1.6 73.6-41.6 78.4zM779.2 249.6c-35.2 12.8-224 97.6-257.6 60.8-20.8-22.4-8-60.8 14.4-96s102.4-158.4 102.4-158.4 14.4-32 40-32c25.6 0 75.2 46.4 100.8 81.6s51.2 76.8 51.2 100.8c0 24-16 32-51.2 43.2z" horiz-adv-x="832" />
<glyph unicode="&#xe661;" d="M481.6 809.6v-204.8c0-17.6 1.6-30.4 4.8-38.4 4.8-12.8 14.4-19.2 30.4-19.2 17.6 0 35.2 11.2 52.8 32v-28.8h48v259.2h-48v-198.4c-11.2-14.4-20.8-22.4-30.4-22.4-6.4 0-9.6 3.2-11.2 11.2 0 0 0 6.4 0 17.6v192h-46.4zM372.8 545.6c24 0 41.6 9.6 54.4 27.2 9.6 12.8 14.4 33.6 14.4 60.8v91.2c0 27.2-4.8 48-14.4 60.8-12.8 17.6-32 27.2-54.4 27.2-24 0-41.6-9.6-54.4-27.2-9.6-12.8-14.4-33.6-14.4-60.8v-91.2c0-27.2 4.8-48 14.4-60.8 12.8-17.6 32-27.2 54.4-27.2zM350.4 734.4c0 24 8 35.2 22.4 35.2s22.4-11.2 22.4-35.2v-108.8c0-24-8-36.8-22.4-36.8s-22.4 12.8-22.4 36.8v108.8zM240 548.8v140.8l62.4 208h-52.8l-35.2-136-36.8 136h-54.4c9.6-28.8 20.8-60.8 33.6-97.6 16-48 27.2-84.8 32-110.4v-140.8h51.2zM726.4 467.2c-16 14.4-33.6 22.4-52.8 24-64 6.4-160 11.2-288 11.2s-224-3.2-288-11.2c-20.8-3.2-38.4-11.2-52.8-24-16-14.4-25.6-30.4-30.4-51.2-9.6-40-12.8-100.8-12.8-182.4 0-83.2 4.8-142.4 12.8-182.4 4.8-20.8 14.4-36.8 30.4-51.2s33.6-22.4 52.8-24c64-8 160-11.2 288-11.2s225.6 3.2 288 11.2c20.8 1.6 38.4 9.6 52.8 24 16 14.4 25.6 30.4 30.4 51.2 9.6 40 12.8 100.8 12.8 182.4 0 83.2-4.8 142.4-12.8 182.4-4.8 20.8-16 38.4-30.4 51.2zM219.2 363.2h-56v-296h-52.8v296h-54.4v49.6h161.6v-49.6h1.6zM358.4 67.2h-46.4v28.8c-19.2-20.8-36.8-32-52.8-32s-25.6 6.4-30.4 19.2c-3.2 8-4.8 20.8-4.8 38.4v203.2h48v-188.8c0-11.2 0-17.6 0-17.6 1.6-8 4.8-11.2 11.2-11.2 9.6 0 19.2 8 30.4 22.4v195.2h46.4l-1.6-257.6zM536 145.6c0-25.6-1.6-43.2-4.8-51.2-6.4-19.2-17.6-28.8-36.8-28.8-16 0-32 9.6-48 28.8v-25.6h-46.4v344h46.4v-113.6c14.4 19.2 30.4 28.8 48 28.8 19.2 0 30.4-9.6 36.8-28.8 3.2-9.6 4.8-25.6 4.8-51.2v-102.4zM712 187.2h-92.8v-44.8c0-24 8-35.2 24-35.2 11.2 0 17.6 6.4 20.8 19.2 0 3.2 1.6 14.4 1.6 32h48v-6.4c0-17.6 0-27.2-1.6-30.4-1.6-9.6-4.8-19.2-11.2-28.8-12.8-17.6-32-27.2-56-27.2s-43.2 9.6-56 27.2c-9.6 12.8-14.4 33.6-14.4 60.8v89.6c0 27.2 4.8 48 14.4 60.8 12.8 17.6 32 27.2 56 27.2s41.6-9.6 54.4-27.2c9.6-12.8 14.4-33.6 14.4-60.8l-1.6-56zM641.6 286.4c-16 0-24-11.2-24-35.2v-24h46.4v24c1.6 22.4-6.4 35.2-22.4 35.2zM468.8 286.4c-8 0-16-3.2-24-11.2v-156.8c8-8 16-11.2 24-11.2 12.8 0 20.8 11.2 20.8 35.2v110.4c0 20.8-6.4 33.6-20.8 33.6z" horiz-adv-x="768" />
<glyph unicode="&#xe662;" d="M-6.4 960v-1024l844.8 512z" horiz-adv-x="832" />
<glyph unicode="&#xe663;" d="M27.2 150.4c11.2 0 20.8 0 32 0 78.4 0 144-1.6 217.6-40 56-28.8 100.8-73.6 155.2-105.6 51.2-30.4 110.4-62.4 169.6-68.8 120-14.4 169.6 131.2 148.8 227.2-54.4-43.2-129.6-41.6-198.4-24-64 20.8-168 88-168 88v0c-46.4 28.8-100.8 52.8-155.2 49.6 0 24 0 25.6 16 43.2 20.8 24 41.6 48 62.4 72 64 75.2 129.6 150.4 193.6 225.6 54.4 64 110.4 128 164.8 192 6.4 6.4 25.6 22.4 25.6 30.4 3.2 28.8 6.4 57.6 9.6 86.4 1.6 20.8-19.2 16-19.2 16v0c-89.6-17.6-180.8-27.2-272-24-51.2 1.6-104 6.4-152 25.6-1.6 0-11.2 6.4-20.8 11.2-14.4 6.4-22.4 3.2-27.2-1.6-3.2-4.8-8-9.6-11.2-14.4-24-32-46.4-70.4-49.6-112-1.6-9.6-1.6-28.8 3.2-40v0c0 0 0-1.6 1.6-3.2 0 0 0 0 0-1.6 11.2-16 64-62.4 268.8-22.4-132.8-156.8-267.2-315.2-400-472 0 0 0 0 0 0-8-8-8-22.4-8-22.4 0-27.2 0-56 0-83.2 0-1.6 0-6.4 0-14.4 3.2-14.4 8-16 12.8-17.6z" horiz-adv-x="768" />
</font>
</defs>
</svg>
